Riverside - Wasteland (2018) [Official Digital Download]

Posted By: delpotro
Riverside - Wasteland (2018) [Official Digital Download]

Riverside - Wasteland (2018)
FLAC (tracks) 24-bit/44,1 kHz | Front Cover | Time - 50:49 minutes | 564 MB
Progressive Rock | Label: Inside Out Records, Official Digital Download

Wasteland is the seventh studio album by Polish progressive rock band Riverside. The album was released on 28 September 2018, through InsideOut Music. The album reached number one in Poland, the top 20 in Germany, and the top 40 in Austria, Finland, the Netherlands and Switzerland.

Riverside’s moody Wasteland is rife with violent sounds and moments of vulnerability. On “Acid Rain”, the band pours out heavy riffs; a stirring, poignant quality defines “The Day After”, while a gentle spirit floats through “Guardian Angel”. Having lost guitarist and founder Piotr Grudziński in 2016, the Polish prog leaders let rip with a heavy heart on the evocative “Lament” and instrumental centrepiece “The Struggle for Survival”. This is an album about grief, acceptance and closure.

Tracklist:
1. The Day After (01:48)
2. Acid Rain (06:02)
3. Vale of Tears (04:48)
4. Guardian Angel (04:23)
5. Lament (06:08)
6. The Struggle for Survival (09:31)
7. River Down Below (05:40)
8. Wasteland (08:25)
9. The Night Before (03:58)

foobar2000 1.4.1 / Dynamic Range Meter 1.1.1
log date: 2021-01-13 13:06:05

––––––––––––––––––––––––––––––––––––––––
Analyzed: Riverside / Wasteland
––––––––––––––––––––––––––––––––––––––––

DR Peak RMS Duration Track
––––––––––––––––––––––––––––––––––––––––
DR9 -0.11 dB -12.67 dB 1:48 01-The Day After
DR8 -0.11 dB -9.39 dB 6:03 02-Acid Rain
DR9 -0.11 dB -10.52 dB 4:49 03-Vale of Tears
DR11 -0.11 dB -12.98 dB 4:24 04-Guardian Angel
DR7 -0.11 dB -10.93 dB 6:09 05-Lament
DR9 -0.11 dB -11.35 dB 9:32 06-The Struggle for Survival
DR9 -0.11 dB -11.21 dB 5:41 07-River Down Below
DR8 -0.11 dB -10.58 dB 8:25 08-Wasteland
DR10 -0.11 dB -13.34 dB 3:59 09-The Night Before
––––––––––––––––––––––––––––––––––––––––

Number of tracks: 9
Official DR value: DR9

Samplerate: 44100 Hz
Channels: 2
Bits per sample: 24
Bitrate: 1335 kbps
Codec: FLAC
================================================================================


Thanks to the Original customer!