Tags
Language
Tags

Robert Ames - Change Ringing (2021) [Official Digital Download 24/88]

Posted By: delpotro
Robert Ames - Change Ringing (2021) [Official Digital Download 24/88]

Robert Ames - Change Ringing (2021)
FLAC (tracks) 24-bit/88,2 kHz | Front Cover | Time - 33:57 minutes | 580 MB
Modern Classical | Label: Modern Recordings, Official Digital Download

As a conductor, curator and arranger, Robert Ames has been a key exchange agent between the classical tradition and contemporary music. co-Founding the London Contemporary Orchestra fresh out of the Royal Academy of Music, Robert went on to work like; conducting Jonny Greenwood’s Oscar Nominated score for the film Phantom Thread , strings for Frank Ocean’s Blonde, arranging and conducting shows for Little Simz and Sigur Ros frontman Jónsi, as well as a longstanding relationship with composer Actress, producing and writing on on his 2020 album Karma and Desire.

It’s with this deep apprehension and wide practice that Robert turned his focus to writing his debut record; a breathtaking, seemingly infinitely generative stream of sonic consciousness, made for a meditative mental gaze. Robert’s unique use of 20th c. electronic techniques and Western tradition annotation saw him slow down recordings, annotate the slow-motion versions, then re-recorded them. This way he formed layers of audio and written music, a geological contouring of the soundscape. This addition of manual information evolution counter-intuitively found a royal road to the unconscious.

The record has features from LCO Lead Violinist and One Little Independent signed composer Galya Bisengalieva as well as the Steam Down affiliated harpist and composer Nala Sinephro. At a time when worldly activity is minimal, Change Ringing is a sublime inner flight, an impossible object, in flux and focus at the same moment.

Tracklist:
1. Peal (05:00)
2. Change Ringing (04:00)
3. Tympanum (feat. Nala Sinephro) (04:18)
4. Dispersion (04:05)
5. Cinque (feat. Galya Bisengalieva) (03:32)
6. Rounds (13:00)

foobar2000 1.4.1 / Dynamic Range Meter 1.1.1
log date: 2021-05-28 12:03:23

––––––––––––––––––––––––––––––––––––––––
Analyzed: Robert Ames / Change Ringing
––––––––––––––––––––––––––––––––––––––––

DR Peak RMS Duration Track
––––––––––––––––––––––––––––––––––––––––
DR10 -0.35 dB -14.49 dB 5:00 01-Peal
DR10 -0.82 dB -14.46 dB 4:00 02-Change Ringing
DR9 -0.02 dB -14.11 dB 4:19 03-Tympanum
DR9 -0.22 dB -13.54 dB 4:06 04-Dispersion
DR9 -2.16 dB -14.22 dB 3:33 05-Cinque
DR10 -0.20 dB -14.14 dB 13:00 06-Rounds
––––––––––––––––––––––––––––––––––––––––

Number of tracks: 6
Official DR value: DR9

Samplerate: 88200 Hz
Channels: 2
Bits per sample: 24
Bitrate: 2344 kbps
Codec: FLAC
================================================================================


Thanks to the Original customer!