Tags
Language
Tags

Ry Cooder - Election Special (Remastered) (2019) [Official Digital Download]

Posted By: El Misha
Ry Cooder - Election Special (Remastered) (2019) [Official Digital Download]

Ry Cooder - Election Special (Remastered) (2019)
FLAC (tracks) 24-bit/48 kHz | Time - 38:33 | 459 MB
Studio Master, Official Digital Download | Artwork: Front cover+digital booklet

Ry Cooder’s Election Special is a wake-up call as the US heads into the 2012 fall election season. On Election Special, which he produced, Cooder plays mandolin, guitar, and bass and wrote all of the songs, co-writing one with Joachim Cooder, who plays drums on the record.



Tracklist:

1. Mutt Romney Blues (3:45)
2. Brother Is Gone (5:03)
3. The Wall Street Part of Town (3:43)
4. Guantanamo (3:30)
5. Cold Cold Feeling (5:26)
6. Going to Tampa (3:58)
7. Kool-Aid (4:10)
8. The 90 and the 9 (5:16)
9. Take Your Hands off It (3:48)

foobar2000 1.3.7 / Dynamic Range Meter 1.1.1
log date: 2019-10-25 00:07:14

––––––––––––––––––––––––––––––––––––––––
Analyzed: Ry Cooder / Election Special (Remastered)
––––––––––––––––––––––––––––––––––––––––

DR Peak RMS Duration Track
––––––––––––––––––––––––––––––––––––––––
DR10 -0.07 dB -11.85 dB 3:45 01-Mutt Romney Blues
DR10 -0.07 dB -13.77 dB 5:03 02-Brother Is Gone
DR9 0.00 dB -9.76 dB 3:43 03-The Wall Street Part of Town
DR8 -0.07 dB -9.74 dB 3:30 04-Guantanamo
DR8 0.00 dB -10.53 dB 5:26 05-Cold Cold Feeling
DR10 0.00 dB -11.93 dB 3:58 06-Going to Tampa
DR9 -0.03 dB -10.35 dB 4:10 07-Kool-Aid
DR9 -0.03 dB -11.81 dB 5:16 08-The 90 and the 9
DR10 0.00 dB -11.03 dB 3:48 09-Take Your Hands off It
––––––––––––––––––––––––––––––––––––––––

Number of tracks: 9
Official DR value: DR9

Samplerate: 48000 Hz
Channels: 2
Bits per sample: 24
Bitrate: 1744 kbps
Codec: FLAC
================================================================================



Thanks to the Original customer!