Tags
Language
Tags

Ry Cooder - Pull Up Some Dust and Sit Down (Remastered) (2019) [Official Digital Download 24/96]

Posted By: El Misha
Ry Cooder - Pull Up Some Dust and Sit Down (Remastered) (2019) [Official Digital Download 24/96]

Ry Cooder - Pull Up Some Dust and Sit Down (Remastered) (2019)
FLAC (tracks) 24-bit/96.0 kHz | Time - 01:01:18 | 1.16 GB
Studio Master, Official Digital Download | Artwork: Front cover

Pull Up Some Dust and Sit Down, issued between two national election cycles, is the most overtly political album Ry Cooder has ever released, and one of his funniest, most musically compelling ones, too. Cooder looks deeply into his musical past using his entire Americana musical arsenal: blues, folk, ragtime, norteño, rock, and country here. Opener "No Banker Left Behind" updates Civil War-era marching music. Cooder's guitar, banjo, bass, and mandola lead drummer (and son) Joachim through a scathing indictment of the the financial bailout in 2007. The marching rhythms are punched through with sharp banjo and mandola riffs as Cooder's signature electric guitar sound frames them. "El Corrido Jesse James" has the outlaw speaking from heaven in waltz time. Accompanied by Flaco Jimenez's accordion and a horn section, James claims that while he was a bank robber, he never "turned a family from their house," and asks God for his trusty .44 to "put that bonus money back where it belongs." "Quick Sand" is a shuffling electric rocker that addresses the plight of illegal immigrants crossing into Arizona. "Christmas Time This Year" is the most incendiary anti-war song in a decade, presented innocently as a Mexican polka. "Lord Tell Me Why" borrows production techniques from Tom Waits, with co-writer and drummer Jim Keltner who assists in getting across this biting, ironic gospel tune: "Lord tell me why a white man/Ain't worth nothin' in this world no more…." An 11-piece band assists in "I Want My Crown," a scorching, growling blues with Cooder's nasty guitar leading the charge. It's followed by the album's finest moment, "John Lee Hooker for President," where Cooder does a shockingly accurate impression of the late bluesman, in fine boogie mode, paying a visit to the White House, not liking what he sees, and deciding to run for office: "I'm compastatic. I ain't Republican or Democratic." He names Jimmy Reed as Veep and Johnny Taylor Secretary of State. His campaign promises swift retribution for injustice and a "groove time" for the nation. If only. The depth of Cooder's rage is quieter but more direct as the album draws to a close. In "If There Is a God," God's been driven from heaven by redistricting; he, "Jesus, Mary and Joe" all hit the road for Mexico. God goes so far as to say he thinks the "Republiklan" legislature wants to bring back Jim Crow laws. Cooder's sorrow about the environment is pervasive in the final corrido, though he, like the Buddha, leaves room for tolerance, wishing his enemies "No Hard Feelings." Those who've followed Cooder from the beginning will find much to love on Pull Up Some Dust and Sit Down. Those music fans unfamiliar with his work but looking for a comrade in arms will find one here. That said, this is revolution music; worthy of dancing to, learning from, and singing along with: who says topical music has to be boring?
© Thom Jurek /TiVo



Tracklist:

1. No Banker Left Behind (3:37)
2. El Corrido de Jesse James (4:18)
3. Quick Sand (3:17)
4. Dirty Chateau (5:30)
5. Humpty Dumpty World (4:18)
6. Christmas Time This Year (2:49)
7. Baby Joined the Army (6:36)
8. Lord Tell Me Why (3:01)
9. I Want My Crown (2:37)
10. John Lee Hooker for President (6:08)
11. Dreamer (5:06)
12. Simple Tools (5:08)
13. If There's a God (3:07)
14. No Hard Feelings (5:52)


foobar2000 1.4 / Dynamic Range Meter 1.1.1
log date: 2021-07-27 11:39:29

––––––––––––––––––––––––––––––––––––––––
Analyzed: Ry Cooder / Pull up Some Dust and Sit Down
––––––––––––––––––––––––––––––––––––––––

DR Peak RMS Duration Track
––––––––––––––––––––––––––––––––––––––––
DR8 -0.10 dB -9.39 dB 3:37 01-No Banker Left Behind
DR9 -0.10 dB -9.74 dB 4:18 02-El Corrido de Jesse James
DR8 -0.10 dB -9.28 dB 3:17 03-Quick Sand
DR11 -0.10 dB -13.72 dB 5:30 04-Dirty Chateau
DR8 -0.10 dB -9.42 dB 4:18 05-Humpty Dumpty World
DR8 -0.10 dB -9.33 dB 2:49 06-Christmas Time This Year
DR11 -0.10 dB -15.67 dB 6:36 07-Baby Joined the Army
DR10 -0.10 dB -11.61 dB 3:01 08-Lord Tell Me Why
DR6 -0.10 dB -8.23 dB 2:37 09-I Want My Crown
DR11 -0.10 dB -12.93 dB 6:08 10-John Lee Hooker for President
DR9 -0.10 dB -10.54 dB 5:06 11-Dreamer
DR10 -0.10 dB -12.51 dB 5:08 12-Simple Tools
DR7 -0.10 dB -8.23 dB 3:07 13-If There's a God
DR10 -0.10 dB -12.31 dB 5:52 14-No Hard Feelings
––––––––––––––––––––––––––––––––––––––––

Number of tracks: 14
Official DR value: DR9

Samplerate: 96000 Hz
Channels: 2
Bits per sample: 24
Bitrate: 2605 kbps
Codec: FLAC
================================================================================



Thanks to the Original customer!