Tags
Language
Tags

Ry Cooder - I, Flathead (Remastered) (2008/2019) [Official Digital Download 24/48]

Posted By: delpotro
Ry Cooder - I, Flathead (Remastered) (2008/2019) [Official Digital Download 24/48]

Ry Cooder - I, Flathead (Remastered) (2008/2019)
FLAC (tracks) 24-bit/48 kHz | Front Cover | Time - 53:06 minutes | 614 MB
Country, Country Rock, Tex-Mex | Label: Nonesuch Records, Official Digital Download

With a cast of legendary Chicano musicians, Cooder recounts the story of how a Mexican-American community was destroyed to make way for L.A.’s Dodger Stadium. Rolling Stone calls it “a remarkable song cycle … a brilliant and flavorful film-noir history lesson.”

Tracklist:
1. Drive Like I Never Been Hurt (04:07)
2. Waitin' for Some Girl (03:48)
3. Johnny Cash (03:08)
4. Can I Smoke in Here? (04:19)
5. Steel Guitar Heaven (03:40)
6. Ridin' with the Blues (03:01)
7. Pink-O-Boogie (03:05)
8. Fernando Sez (04:44)
9. Spayed Kooley (02:09)
10. Filipino Dance Hall Girl (03:54)
11. My Dwarf Is Getting Tired (03:59)
12. Flathead One More Time (03:12)
13. 5000 Country Music Songs (06:41)
14. Little Trona Girl (03:13)

foobar2000 1.6.2 beta 3 / Dynamic Range Meter 1.1.1
log date: 2020-10-04 21:46:05

––––––––––––––––––––––––––––––––––––––––
Analyzed: Ry Cooder / I, Flathead [Remastered]
––––––––––––––––––––––––––––––––––––––––

DR Peak RMS Duration Track
––––––––––––––––––––––––––––––––––––––––
DR7 0.00 dB -8.98 dB 4:07 01-Drive Like I Never Been Hurt
DR8 -0.01 dB -9.70 dB 3:49 02-Waitin' for Some Girl
DR7 0.00 dB -8.70 dB 3:09 03-Johnny Cash
DR13 -0.10 dB -15.38 dB 4:19 04-Can I Smoke in Here?
DR10 -0.09 dB -13.06 dB 3:41 05-Steel Guitar Heaven
DR5 0.00 dB -7.37 dB 3:01 06-Ridin' with the Blues
DR7 0.00 dB -8.18 dB 3:06 07-Pink-O-Boogie
DR7 0.00 dB -8.60 dB 4:44 08-Fernando Sez
DR7 -0.06 dB -9.63 dB 2:10 09-Spayed Kooley
DR7 -0.01 dB -8.98 dB 3:54 10-Filipino Dance Hall Girl
DR9 -0.07 dB -10.63 dB 4:00 11-My Dwarf Is Getting Tired
DR10 -0.08 dB -12.52 dB 3:12 12-Flathead One More Time
DR7 -0.08 dB -9.48 dB 6:41 13-5000 Country Music Songs
DR8 -0.09 dB -9.91 dB 3:13 14-Little Trona Girl
––––––––––––––––––––––––––––––––––––––––

Number of tracks: 14
Official DR value: DR8

Samplerate: 48000 Hz
Channels: 2
Bits per sample: 24
Bitrate: 1513 kbps
Codec: FLAC
================================================================================


Thanks to the Original customer!