Sasha Matson - Cooperstown Jazz Opera in Nine Innings (2020) [Official Digital Download 24/88]

Posted By: El Misha
Sasha Matson - Cooperstown Jazz Opera in Nine Innings (2020) [Official Digital Download 24/88]

Sasha Matson - Cooperstown Jazz Opera in Nine Innings (2020)
FLAC (tracks) 24-bit/88.2 kHz | Time - 01:17:56 | 1.39 GB
Studio Master, Official Digital Download | Artwork: Front cover

The word opera conjures up images of large casts, a huge orchestra and chorus and massive logistical issues. Not Cooperstown! A jazz opera in nine innings, Cooperstown utilizes five solo singers and a 1950s modern jazz quintet. Based on A. Bartlett Giamatti's essay, "The Green Fields of the Mind," composer Sasha Matson has, with librettist Mark Miller, used baseball as an art form, with the capacity to express the deepest emotional truths about individuals and society. Matson reflects baseball's own specific historical musical attributes in his composition. One is the sound of the stadium organ, which led him to score the music for a "Miles" jazz quintet. This particular grouping of instruments is as capable as any large orchestra of realizing music in all its potential variety. The musical materials boil down to the rising three-chord "Charge" fanfare still heard in stadiums everywhere. Sasha Matson graduated from the San Francisco Conservatory of Music and UCLA, where he received his Ph.D. He has scored music for feature film and other multi-media in addition to own his compositional work. He writes about audio and music and is an associate editor for Positive Feedback Online.



Tracklist:

1. Sasha Matson - Cooperstown, Act 1 Scene 1: Chart 1
2. Sasha Matson - Cooperstown, Act I Scene 1: First Inning
3. Sasha Matson - Cooperstown, Act I Scene 2: Chart 2
4. Sasha Matson - Cooperstown, Act I Scene 2: Second Inning
5. Sasha Matson - Cooperstown, Act I Scene 3: Chart 3
6. Sasha Matson - Cooperstown, Act I Scene 3: Third Inning
7. Sasha Matson - Cooperstown, Act I Scene 4: Chart 4
8. Sasha Matson - Cooperstown, Act I Scene 4: Fourth Inning
9. Sasha Matson - Cooperstown, Act I Scene 5: Chart 5
10. Sasha Matson - Cooperstown, Act I Scene 5: Fifth Inning
11. Sasha Matson - Cooperstown, Act I Scene 6: Chart 6
12. Sasha Matson - Cooperstown, Act I Scene 6: Sixth Inning
13. Sasha Matson - Cooperstown, Act I Scene 7: Chart 7
14. Sasha Matson - Cooperstown, Act I Scene 7: Seventh Inning
15. Sasha Matson - Cooperstown, Act I Scene 8: Chart 8
16. Sasha Matson - Cooperstown, Act I Scene 8: Eighth Inning
17. Sasha Matson - Cooperstown, Act I Scene 9: Chart 9
18. Sasha Matson - Cooperstown, Act I Scene 9: Ninth Inning

CONTENTS:
Sasha Matson, composer
Cooperstown, A Jazz Opera in Nine Innings
Julie Adams; Daniel Favela; Carin Gilfry; Rod Gilfry; Daniel Montenegro; Gernot Bernroider, drums; Russ Johnson, trumpets; Rich Mollin, bass; Jason Rigby, saxophones; Sean Wayland, keyboards; Sasha Matson, conductor

foobar2000 1.4 / Dynamic Range Meter 1.1.1
log date: 2021-02-07 21:44:32

––––––––––––––––––––––––––––––––––––––––
Analyzed: Sasha Matson / Cooperstown: Jazz Opera in Nine Innings
––––––––––––––––––––––––––––––––––––––––

DR Peak RMS Duration Track
––––––––––––––––––––––––––––––––––––––––
DR15 -1.94 dB -20.00 dB 1:55 01-Cooperstown, Act 1 Scene 1: Chart 1
DR15 -1.04 dB -20.46 dB 5:39 02-Cooperstown, Act I Scene 1: First Inning
DR13 -0.71 dB -17.24 dB 0:53 03-Cooperstown, Act I Scene 2: Chart 2
DR12 -3.78 dB -19.85 dB 7:09 04-Cooperstown, Act I Scene 2: Second Inning
DR14 -0.77 dB -19.13 dB 0:51 05-Cooperstown, Act I Scene 3: Chart 3
DR16 -0.06 dB -20.39 dB 6:39 06-Cooperstown, Act I Scene 3: Third Inning
DR11 -4.62 dB -20.47 dB 1:23 07-Cooperstown, Act I Scene 4: Chart 4
DR15 -0.03 dB -20.66 dB 9:43 08-Cooperstown, Act I Scene 4: Fourth Inning
DR13 -0.36 dB -17.79 dB 0:52 09-Cooperstown, Act I Scene 5: Chart 5
DR15 -0.11 dB -21.84 dB 5:55 10-Cooperstown, Act I Scene 5: Fifth Inning
DR12 -3.48 dB -18.10 dB 1:03 11-Cooperstown, Act I Scene 6: Chart 6
DR15 -0.11 dB -20.55 dB 6:18 12-Cooperstown, Act I Scene 6: Sixth Inning
DR12 -3.99 dB -22.96 dB 1:18 13-Cooperstown, Act I Scene 7: Chart 7
DR16 0.00 dB -20.17 dB 7:03 14-Cooperstown, Act I Scene 7: Seventh Inning
DR10 -7.78 dB -21.87 dB 1:29 15-Cooperstown, Act I Scene 8: Chart 8
DR15 -0.06 dB -20.06 dB 8:26 16-Cooperstown, Act I Scene 8: Eighth Inning
DR16 -1.73 dB -21.68 dB 1:20 17-Cooperstown, Act I Scene 9: Chart 9
DR15 -0.97 dB -20.88 dB 10:08 18-Cooperstown, Act I Scene 9: Ninth Inning
––––––––––––––––––––––––––––––––––––––––

Number of tracks: 18
Official DR value: DR14

Samplerate: 88200 Hz
Channels: 2
Bits per sample: 24
Bitrate: 2494 kbps
Codec: FLAC
================================================================================



Thanks to the Original customer!