Sasha Sloan - Only Child (2020) [Official Digital Download]

Posted By: El Misha
Sasha Sloan - Only Child (2020) [Official Digital Download]

Sasha Sloan - Only Child (2020)
FLAC (tracks) 24-bit/44.10 kHz | Time - 34:38 | 384 MB
Studio Master, Official Digital Download | Artwork: Front cover

Only Child is the debut album from critically acclaimed singer/songwriter Sasha Sloan. Only Child showcases Sasha's bravery and willingness to put her vulnerabilities on display, with tracks like Lie'", and "House With No Mirrors." Sasha continues to deliver music that weaves her powerful words and beautifully crafted melodies. After emerging in 2017, Sasha Sloan has established herself as a true wordsmith, an artist's artist, who crafts potent melodies filled with poignant lyrics. In 2018 Sasha released her first two EPs, Sad Girl and Loser. Her track "Normal" has been heralded by Billboard as a "catchy introvert anthem." These emotionally-rich, left-of-center releases lead to her late night debut on The Late Show with Stephen Colbert in 2019 with a performance of "Older." That year, Sasha completed her first North American and European headline tours and released her 3rd and final EP Self Portrait, which had her single "Dancing With Your Ghost" as Idolator's 6th "75 Best Pop Songs Of 2019."



Tracklist:

1. Matter To You (3:37)
2. Only Child (2:25)
3. House With No Mirrors (3:48)
4. Lie (3:29)
5. Hypochondriac (3:22)
6. Is It Just Me? (3:35)
7. Santa's Real (3:25)
8. Someone You Hate (3:56)
9. Until It Happens To You (3:42)
10. High School Me (3:24)

foobar2000 1.4 / Dynamic Range Meter 1.1.1
log date: 2020-10-16 19:47:42

––––––––––––––––––––––––––––––––––––––––
Analyzed: Sasha Sloan / Only Child
––––––––––––––––––––––––––––––––––––––––

DR Peak RMS Duration Track
––––––––––––––––––––––––––––––––––––––––
DR4 -0.20 dB -7.16 dB 3:37 01-Matter To You
DR8 -0.20 dB -10.66 dB 2:25 02-Only Child
DR8 -0.20 dB -9.86 dB 3:48 03-House With No Mirrors
DR4 -0.20 dB -6.00 dB 3:29 04-Lie
DR9 -0.20 dB -10.70 dB 3:22 05-Hypochondriac
DR5 -0.20 dB -7.52 dB 3:35 06-Is It Just Me?
DR6 -0.20 dB -8.85 dB 3:25 07-Santa's Real
DR6 -0.20 dB -8.57 dB 3:56 08-Someone You Hate
DR3 -0.20 dB -7.14 dB 3:42 09-Until It Happens To You
DR5 -0.20 dB -7.79 dB 3:24 10-High School Me
––––––––––––––––––––––––––––––––––––––––

Number of tracks: 10
Official DR value: DR6

Samplerate: 44100 Hz
Channels: 2
Bits per sample: 24
Bitrate: 1494 kbps
Codec: FLAC
================================================================================



Thanks to the Original customer!