Scott Hamilton, Paolo Birro, Alfred Kramer, Aldo Zunino - Live at Museo Piaggio (2020) [Official Digital Download 24/88]

Posted By: El Misha
Scott Hamilton, Paolo Birro, Alfred Kramer, Aldo Zunino - Live at Museo Piaggio (2020) [Official Digital Download 24/88]

Scott Hamilton, Paolo Birro, Alfred Kramer, Aldo Zunino - Live at Museo Piaggio (2020)
FLAC (tracks) 24-bit/88.20 kHz | Time - 01:19:36 | 1.60 GB
Studio Master, Official Digital Download | Artwork: Front cover+digital booklet

Scott Hamilton is a jazz tenor saxophonist associated with swing (music) and mainstream jazz.

He emerged in the 1970s and at the time he was considered to be one of the few musicians of real talent who carried the tradition of the classic jazz tenor saxophone in the style of Ben Webster, Coleman Hawkins as well as Zoot Sims and Don Byas forward. He began playing in various rhythm & blues outfits in Providence (Rhode Island), but subsequently shifted to jazz and the tenor saxophone. In 1976 he moved to New York City at, in part the recommendation of Roy Eldridge. He there joined Benny Goodman for a period of time. During this time, he also developed an alcohol problem., In the early 1980's he had formed his own quintet and toured all over the world. By then free from his drinking habit, in 1982 he had matured sufficiently to be able to break away from the spell of mainly Ben Webster and Zoot Sims, of whom he had been criticized of imitating. From this point on both his playing and his tone was very much his own.

Living in New York City, he toured all around the world during the 1980's, playing Japan and all over Europe. He was in particular a recurrent visitor to the UK, Sweden and the Grand Parade du Jazz, held in Nice, France. By the early 1990's he was ready for a next step and by 1994 when he released Organic Duke, he had developed a quite singular style: a large, well rounded but still focused tone and improvising, ostensibly still based on the swing idiom (especially Ellington), but incorporating more modern elements. During this period, he relocated to London, and formed his current quartet, featuring John Pearce (p), Dave Green (b) and Steve Brown (dr). He is currently active touring all over Europe.

He has had over forty albums as a lead most on the Concord Records label. User-contributed text is available under the Creative Commons By-SA License and may also be available under the GNU FDL.



Tracklist:

01. If I Were A Bell
02. When The Sun Comes Out
03. Groovin’ high
04. Anos Dourados
05. Wrap Your Troubles In Dreams
06. Cherokee
07. If You Could See Me Now
08. Tiny’s Blues
09. Meglio Stasera
10. Pure Imagination

foobar2000 1.4 / Dynamic Range Meter 1.1.1
log date: 2020-08-11 08:53:38

––––––––––––––––––––––––––––––––––––––––
Analyzed: Scott Hamilton, Paolo Birro, Alfred Kramer, Aldo Zunino / Live at Museo Piaggio
––––––––––––––––––––––––––––––––––––––––

DR Peak RMS Duration Track
––––––––––––––––––––––––––––––––––––––––
DR14 -1.57 dB -20.23 dB 10:53 01-If I Were A Bell
DR16 -3.21 dB -22.63 dB 8:49 02-When The Sun Comes Out
DR15 -1.54 dB -19.21 dB 9:48 03-Groovin’ high
DR15 -2.06 dB -22.34 dB 6:31 04-Anos Dourados
DR16 -2.47 dB -23.26 dB 8:47 05-Wrap Your Troubles In Dreams
DR14 -0.73 dB -18.76 dB 13:47 06-Cherokee
DR15 -2.64 dB -22.95 dB 6:01 07-If You Could See Me Now
DR15 -0.95 dB -19.19 dB 8:37 08-Tiny’s Blues
DR14 -1.19 dB -18.72 dB 3:15 09-Meglio Stasera
DR13 -5.52 dB -25.50 dB 3:08 10-Pure Imagination
––––––––––––––––––––––––––––––––––––––––

Number of tracks: 10
Official DR value: DR15

Samplerate: 88200 Hz
Channels: 2
Bits per sample: 24
Bitrate: 2670 kbps
Codec: FLAC
================================================================================



Thanks to the Original customer!