Serge Gainsbourg - Love On The Beat (2015) [Official Digital Download 24/96]

Posted By: El Misha
Serge Gainsbourg - Love On The Beat (2015) [Official Digital Download 24/96]

Serge Gainsbourg - Love On The Beat (1984/2015)
FLAC (tracks) 24-bit/96 kHz | Time - 37:06 | 801 MB
Studio Master, Official Digital Download | Artwork: Front cover

Serge Gainsbourg recorded his first album in 1958. But it was at the end of the 1960s that his short affair with Brigitte Bardot changed his jazzy style towards this suggestive music with sumptuous arrangements. He then met Jane Birkin with whom he recorded the 1969 duet "Je t'aime … Moi Non Plus", a song with scorching lyrics punctuated by gasps and explicit moans. Although it was banned in many countries, this song reached the top of the charts all over Europe. In 1971, he released The Story of Melody Nelson, a cycle of dark songs that mark his growing detachment from modern culture. Drugs, disease, suicide and misanthropy become recurring themes in his work.



Tracklist:

01. Love On The Beat
02. Sorry Angel
03. Hmm Hmm Hmm
04. Kiss Me Hardy
05. No Comment
06. I'm The Boy
07. Harley David Son Of A Bitch
08. Lemon Incest

foobar2000 1.4 / Dynamic Range Meter 1.1.1
log date: 2021-06-11 10:50:52

––––––––––––––––––––––––––––––––––––––––
Analyzed: Serge Gainsbourg / Love On The Beat
––––––––––––––––––––––––––––––––––––––––

DR Peak RMS Duration Track
––––––––––––––––––––––––––––––––––––––––
DR12 -0.27 dB -13.96 dB 8:04 01-Love On The Beat
DR13 -0.42 dB -14.57 dB 3:58 02-Sorry Angel
DR12 -0.40 dB -13.54 dB 2:50 03-Hmm Hmm Hmm (Album Version)
DR12 -0.36 dB -13.88 dB 4:26 04-Kiss Me Hardy
DR12 -0.34 dB -13.99 dB 5:09 05-No Comment
DR11 -0.46 dB -13.08 dB 4:28 06-I'm The Boy (Album Version)
DR12 -0.34 dB -13.14 dB 3:01 07-Harley David Son Of A Bitch
DR11 -0.45 dB -12.77 dB 5:13 08-Lemon Incest (D'après l'étude Opus 10 N°3 En Mi Majeur de Chopin)
––––––––––––––––––––––––––––––––––––––––

Number of tracks: 8
Official DR value: DR12

Samplerate: 96000 Hz
Channels: 2
Bits per sample: 24
Bitrate: 3062 kbps
Codec: FLAC
================================================================================



Thanks to the Original customer!