Seventh Crystal - Delirium (2021) [Official Digital Download]

Posted By: delpotro
Seventh Crystal - Delirium (2021) [Official Digital Download]

Seventh Crystal - Delirium (2021)
FLAC (tracks) 24-bit/44,1 kHz | Front Cover | Time - 44:42 minutes | 534 MB
Melodic Hard Rock, AOR | Label: Frontiers Records, Official Digital Download

Seventh Crystal, a stunning new rock band from the fertile Swedish music scene, was put together by singer Kristian Fyhr (Perpetual Etude). Initially, Kristian wanted to pursue a solo project. but when the songs started to take form, he realized he wanted to involve more musicians. So, he moved to vocals only and brought in Johan Älvsång (Pinstripe Conspiracy, Lamashtu) on keyboards/piano and Olof Gadd (Osukaru) on bass as the first key pieces, and then recruited Anton Roos on drums and Emil Dornerus on guitar to complete the line-up.

Seventh Crystal's music can best be described as arena rock with melodic rock influences. In the words of Kristian Fyhr, “I would describe the band’s music as an “intelligent” rock style, but still very melodic. My songwriting is very varied. I like starting a song in a pop style and then beefing it up and making it rock. I am a big admirer of the Cheiron Studio and Max Martin, so my influences come mainly from there. Then of course all the other guys in the band bring their own influences and the result is totally Seventh Crystal!”

If you love the new wave of Scandinavian hard rock embodied by bands such as One Desire, H.E.A.T., and other bands who bring a huge sense of melody to modern rock, then this band is going to be right up your alley. Their forthcoming debut album will be hard to top as THE debut album of 2021.

Tracklist:
1. Say What You Need to Say (03:55)
2. When We Were Young (02:54)
3. Broken Mirror (03:58)
4. Delirium (03:35)
5. When I'm Gone (03:45)
6. Should've Known Better (03:50)
7. So Beautiful (03:32)
8. Time to Let It Go (03:23)
9. Déjà Vu (03:09)
10. Bright and Clear (03:58)
11. Hope It Will Be Alright (04:06)
12. World is Crashing Down (Bonus Track) (04:31)

foobar2000 1.4.1 / Dynamic Range Meter 1.1.1
log date: 2021-05-14 14:42:56

––––––––––––––––––––––––––––––––––––––––
Analyzed: Seventh Crystal / Delirium
––––––––––––––––––––––––––––––––––––––––

DR Peak RMS Duration Track
––––––––––––––––––––––––––––––––––––––––
DR6 -0.30 dB -8.07 dB 3:56 01-Say What You Need to Say
DR7 -0.30 dB -7.68 dB 2:54 02-When We Were Young
DR6 -0.30 dB -7.91 dB 3:58 03-Broken Mirror
DR6 -0.30 dB -7.73 dB 3:36 04-Delirium
DR6 -0.30 dB -7.82 dB 3:45 05-When I'm Gone
DR6 -0.30 dB -8.08 dB 3:51 06-Should've Known Better
DR6 -0.30 dB -7.57 dB 3:32 07-So Beautiful
DR6 -0.30 dB -7.33 dB 3:24 08-Time to Let It Go
DR6 -0.30 dB -8.94 dB 3:10 09-Déjà Vu
DR6 -0.30 dB -7.57 dB 3:58 10-Bright and Clear
DR11 -0.30 dB -13.92 dB 4:07 11-Hope It Will Be Alright
DR6 -0.30 dB -9.74 dB 4:32 12-World is Crashing Down (Bonus Track)
––––––––––––––––––––––––––––––––––––––––

Number of tracks: 12
Official DR value: DR6

Samplerate: 44100 Hz
Channels: 2
Bits per sample: 24
Bitrate: 1542 kbps
Codec: FLAC
================================================================================


Thanks to the Original customer!