Sonya Belousova & Giona Ostinelli - The Witcher (Music from the Netflix Original Series) (2020) [Official Digital Download]

Posted By: El Misha
Sonya Belousova & Giona Ostinelli - The Witcher (Music from the Netflix Original Series) (2020) [Official Digital Download]

Sonya Belousova & Giona Ostinelli - The Witcher (Music from the Netflix Original Series) (2020)
FLAC (tracks) 24-bit/44.10 kHz | Time - 03:02:52 | 1.91 GB
Studio Master, Official Digital Download | Artwork: Front cover

The album, simply called "The Witcher (Music from the Netflix Original Series)," was arranged for the series by Swiss-Italian composer Giona Ostinelli and Russian-born American producer Sonya Belousova.



Tracklist:

01. Geralt of Rivia (1:52)
02. Toss A Coin To Your Witcher (3:10)
03. Happy Childhoods Make For Dull Company (3:16)
04. The Time of Axe and Sword Is Now (4:57)
05. They’re Alive (1:42)
06. Tomorrow I’ll Leave Blaviken For Good (1:34)
07. Her Sweet Kiss (2:00)
08. It’s an Ultimatum (3:55)
09. Round of Applause (1:10)
10. Marilka That’s My Name (2:48)
11. I’m Helping the Idiot (2:45)
12. The Knight Who Was Taught to Save Dragons (5:06)
13. Ragamuffin (4:28)
14. The Last Rose of Cintra (2:24)
15. Late Wee Pups Don’t Get to Bark (2:39)
16. You Will Rule This Land Someday (4:31)
17. The Fishmonger’s Daughter (1:16)
18. Blaviken Inn (1:34)
19. Man in Black (4:04)
20. The Great Cleansing (4:04)
21. The Law of Surprise (4:30)
22. Battle of Marnadal (4:18)
23. Pretty Ballads Hide Bastard Truths (2:20)
24. Giltine the Artist (1:42)
25. Everytime You Leave (2:08)
26. Rewriting History (3:55)
27. The End’s Beginning (2:19)
28. Gold Dragons Are the Rarest (5:49)
29. Bonfire (2:15)
30. Children Are Our Favorite (3:17)
31. Do You Actually Have What It Takes (4:53)
32. Point Me to Temeria (0:56)
33. Djinni Djinn Djinn (2:09)
34. Here’s Your Destiny (3:49)
35. Two Vows Here Tonight (3:02)
36. Bread, Breasts and Beer (1:50)
37. Would You Honor Me With a Dance (2:03)
38. Four Marks (4:17)
39. The Pensive Dragon Inn (1:29)
40. A Gift for the Princess (2:48)
41. You’re in Brokilon Forest (2:41)
42. Today Isn’t Your Day Is It (1:39)
43. Lovely Rendez-vous à la Montagne (2:40)
44. Blame Destiny (4:45)
45. The White Flame Has Brought Us Together (3:36)
46. He’s One of the Clean Ones (2:24)
47. You Lost Your Chance to Be Beautiful (5:14)
48. Yennefer of Vengerberg (3:11)
49. Shouldn’t You Know When Someone Is Pretending (2:21)
50. You’ll Have to Fight It Until Dawn (9:04)
51. I’m the One with the Wishes (7:33)
52. Chaos Is All Around Us (4:29)
53. The Curse of the Black Sun (6:51)
54. Battle of Sodden (4:02)
55. The Song of the White Wolf (3:45)

foobar2000 1.4 / Dynamic Range Meter 1.1.1
log date: 2020-01-24 06:17:00

––––––––––––––––––––––––––––––––––––––––
Analyzed: Sonya Belousova / The Witcher (Music from the Netflix Original Series)
––––––––––––––––––––––––––––––––––––––––

DR Peak RMS Duration Track
––––––––––––––––––––––––––––––––––––––––
DR5 -0.09 dB -7.82 dB 1:52 01-Geralt of Rivia
DR5 -0.09 dB -8.83 dB 3:10 02-Toss A Coin To Your Witcher
DR10 -0.54 dB -14.37 dB 3:16 03-Happy Childhoods Make For Dull Company
DR6 -0.09 dB -9.37 dB 4:57 04-The Time of Axe and Sword Is Now
DR8 -0.09 dB -12.58 dB 1:42 05-They're Alive
DR9 -0.09 dB -14.45 dB 1:34 06-Tomorrow I'll Leave Blaviken For Good
DR5 -0.09 dB -8.78 dB 2:00 07-Her Sweet Kiss
DR7 -0.10 dB -10.12 dB 3:55 08-It's an Ultimatum
DR7 -0.09 dB -11.91 dB 1:10 09-Round of Applause
DR8 -0.12 dB -12.90 dB 2:48 10-Marilka That's My Name
DR10 -0.11 dB -11.88 dB 2:45 11-I'm Helping the Idiot
DR6 -0.10 dB -9.44 dB 5:06 12-The Knight Who Was Taught to Save Dragons
DR10 -0.46 dB -14.48 dB 4:28 13-Ragamuffin
DR6 -0.09 dB -8.37 dB 2:24 14-The Last Rose of Cintra
DR9 -0.09 dB -13.91 dB 2:39 15-Late Wee Pups Don't Get to Bark
DR7 -0.10 dB -11.45 dB 4:31 16-You Will Rule This Land Someday
DR9 -0.10 dB -10.89 dB 1:16 17-The Fishmonger's Daughter
DR12 -0.90 dB -17.71 dB 1:34 18-Blaviken Inn
DR6 -0.10 dB -9.31 dB 4:04 19-Man in Black
DR8 -0.10 dB -12.98 dB 4:04 20-The Great Cleansing
DR9 -0.29 dB -14.19 dB 4:30 21-The Law of Surprise
DR6 -0.10 dB -9.72 dB 4:18 22-Battle of Marnadal
DR11 -0.65 dB -13.06 dB 2:20 23-Pretty Ballads Hide Bastard Truths
DR10 -0.09 dB -15.87 dB 1:42 24-Giltine the Artist
DR9 -0.02 dB -13.31 dB 2:08 25-Everytime You Leave
DR11 -1.22 dB -18.04 dB 3:55 26-Rewriting History
DR6 -0.11 dB -9.20 dB 2:19 27-The End's Beginning
DR6 0.00 dB -11.15 dB 5:49 28-Gold Dragons Are the Rarest
DR10 -2.66 dB -16.94 dB 2:15 29-Bonfire
DR8 -0.10 dB -11.98 dB 3:17 30-Children Are Our Favorite
DR7 -0.09 dB -12.89 dB 4:53 31-Do You Actually Have What It Takes
DR7 0.00 dB -10.07 dB 0:56 32-Point Me to Temeria
DR7 0.00 dB -11.41 dB 2:09 33-Djinni Djinn Djinn
DR7 0.00 dB -10.43 dB 3:49 34-Here's Your Destiny
DR9 -0.09 dB -14.64 dB 3:02 35-Two Vows Here Tonight
DR10 -2.63 dB -15.91 dB 1:50 36-Bread, Breasts and Beer
DR8 -0.10 dB -9.30 dB 2:03 37-Would You Honor Me With a Dance
DR7 0.00 dB -12.50 dB 4:17 38-Four Marks
DR12 -1.19 dB -15.43 dB 1:29 39-The Pensive Dragon Inn
DR8 0.00 dB -13.09 dB 2:48 40-A Gift for the Princess
DR7 0.00 dB -11.19 dB 2:41 41-You're in Brokilon Forest
DR7 -0.09 dB -10.55 dB 1:39 42-Today Isn't Your Day Is It
DR7 0.00 dB -11.60 dB 2:40 43-Lovely Rendez-vous à la Montagne
DR8 -0.09 dB -13.22 dB 4:45 44-Blame Destiny
DR7 0.00 dB -11.22 dB 3:36 45-The White Flame Has Brought Us Together
DR11 -1.44 dB -17.98 dB 2:24 46-He's One of the Clean Ones
DR10 -0.10 dB -15.80 dB 5:14 47-You Lost Your Chance to Be Beautiful
DR9 -0.10 dB -13.97 dB 3:11 48-Yennefer of Vengerberg
DR10 -2.06 dB -18.44 dB 2:21 49-Shouldn't You Know When Someone Is Pretending
DR8 -0.10 dB -11.24 dB 9:04 50-You'll Have to Fight It Until Dawn
DR7 -0.10 dB -10.26 dB 7:33 51-I'm the One with the Wishes
DR11 -0.10 dB -16.54 dB 4:29 52-Chaos Is All Around Us
DR8 0.00 dB -12.66 dB 6:51 53-The Curse of the Black Sun
DR7 -0.10 dB -9.82 dB 4:01 54-Battle of Sodden
DR4 -0.09 dB -8.89 dB 3:45 55-The Song of the White Wolf
––––––––––––––––––––––––––––––––––––––––

Number of tracks: 55
Official DR value: DR8

Samplerate: 48000 Hz
Channels: 2
Bits per sample: 24
Bitrate: 1574 kbps
Codec: FLAC
================================================================================



Thanks to the Original customer!