Tags
Language
Tags

Stendeck - Carnage (2021) [Official Digital Download]

Posted By: delpotro
Stendeck - Carnage (2021) [Official Digital Download]

Stendeck - Carnage (2021)
FLAC (tracks) 24-bit/44,1 kHz | Front Cover | Time - 69:13 minutes | 764 MB
Electronic, IDM | Label: Hymen Records, Official Digital Download

in a time where truth is more an opinion than a fact, where facts become the purpose of conspiracies and evidences could be a brainwashing machinery; in a time where hate is an accomplishment of supremacy, where everyone is a wannabe sovereign, where the audience is the judge and the executor; where the image is more important than meaning, where everything is instantly accessible, where likes have a weight on your personal life, carnage becomes an absolutely essential ceremony. there’s no turning back.

'carnage' is stendeck 's new album: a dizzying crescendo of emotions, an electronic symphony surrendered by bombast and bluster and a violent break of everything. stendeck's ability to craft rich, woofer-rumbling electronic soundscapes and slick technoid-electro cuts delivers those goods, is clearly a result from a complex writing procedure based upon a quest to create unique sound treatments. with pure artistic beauty and grace, the dramatic tone and cinematic scale are enriched with the charismatic vocals of kristi lyn scaccia and the voices of the les voix obscures choir and takes the music to whole new heights. it's a special treat of temporary peace; in search of oneself - for catharsis.

Tracklist:
1. ceremony of innocence (04:58)
2. thirteen wolves mass conspiracy (05:10)
3. new dark age (04:21)
4. somewhere nobody knows (05:57)
5. the lost gardens of heligan (02:58)
6. streams of oblivion (06:22)
7. the downstairs room (04:41)
8. carnage (dans les brumes de la haine) (04:12)
9. red neon (06:24)
10. eyeless creatures gently stifle the ivy lady (05:28)
11. queen of beauty tragic obsession (05:05)
12. the deviating harmony of catastrophes (05:41)
13. on the shore of the dying sun we will find temporary peace (07:57)

foobar2000 1.4.1 / Dynamic Range Meter 1.1.1
log date: 2021-06-24 15:17:27

––––––––––––––––––––––––––––––––––––––––
Analyzed: Stendeck / Carnage
––––––––––––––––––––––––––––––––––––––––

DR Peak RMS Duration Track
––––––––––––––––––––––––––––––––––––––––
DR4 -0.07 dB -6.06 dB 4:58 01-Ceremony of Innocence
DR6 0.00 dB -8.68 dB 5:10 02-Thirteen Wolves Mass Conspiracy
DR7 -0.02 dB -9.73 dB 4:21 03-New Dark Age
DR6 -0.06 dB -9.96 dB 5:57 04-Somewhere Nobody Knows
DR6 -0.11 dB -11.52 dB 2:58 05-The Lost Gardens of Heligan
DR5 0.00 dB -8.17 dB 6:22 06-Streams of Oblivion
DR6 0.00 dB -7.65 dB 4:41 07-The Downstairs Room
DR6 0.00 dB -10.22 dB 4:12 08-Carnage (Dans Les Brumes De La Haine)
DR4 -0.10 dB -8.33 dB 6:24 09-Red Neon
DR6 0.00 dB -8.52 dB 5:28 10-Eyeless Creatures Gently Stifle the Ivy Lady
DR7 -0.07 dB -10.10 dB 5:05 11-Queen of Beauty Tragic Obsession
DR5 0.00 dB -7.31 dB 5:41 12-The deviating Harmony of Catastrophes
DR7 0.00 dB -10.24 dB 7:57 13-On the shore of the dying sun we will find Temporary Peace
––––––––––––––––––––––––––––––––––––––––

Number of tracks: 13
Official DR value: DR6

Samplerate: 44100 Hz
Channels: 2
Bits per sample: 24
Bitrate: 1484 kbps
Codec: FLAC
================================================================================


Thanks to the Original customer!