Sven Wunder - Natura Morta (2021) [Official Digital Download]

Posted By: El Misha
Sven Wunder - Natura Morta (2021) [Official Digital Download]

Sven Wunder - Natura Morta (2021)
FLAC (tracks) 24-bit/48.0 kHz | Time - 32:24 | 363 MB
Studio Master, Official Digital Download | Artwork: Front cover

On Natura Morta, Sven Wunder is exploring art as a bridge between nature and the human ability to judge and observe in eleven musical compositions with brightly colored textures and an emphasis on vibrant melodies.

Throughout human history, we have depicted the world we live in through art. By reworking what we see in the world, the simplest things have helped us understand the beauty of nature and to evaluate the material world that we have created around us, as a window to a constantly changing reality, through our own perception. It is that absolute reality that appears in the seam of human and nature and that can be revealed through art.

Still life painting, also referred to as natura morta (”dead nature”) in Italian, stretches back to ancient times. Some of the earliest works, found in Pompeii, depict commonplace objects such as fresh autumn fruits alongside man-made objects such as a small amphora and a small terracotta heap with dried fruits. These two thousand year old paintings give a snapshot of Roman life, and also creates a link to time and space. A slice of life has been created by binding the earth’s pigments with extracts of oil, made from nuts and seeds, painted with brushes, made from a variety of fibers, such as trees and hair from animals. While life wanes with each brush stroke, by shifting reality into past, art exists to make us come alive, being a living image of a dead thing, a surface and a symbol with symbolic powers of its own. Still life works celebrate material and ephemeral pleasures by returning to nature as the ultimate source for our standards in art as well as in life itself.

Natura Morta collects pieces from a continuous variety of melodies — supported by a decisive rhythm section — creating a musical kaleidoscope of ever-changing colors. Sven Wunder brings life into this rich assortment of musical implications by fusing and combining melodic instruments with each other in a setting that spans from a classical to a modern idiom. The author evokes this panoramic portrait by articulating an instrumental dialog between a chamber orchestra and a jazz ensemble. The result is a musical celebration of material pleasures that also serves as a reminder of the brevity of human life. This album was produced with financial support from the Swedish Arts Council.



Tracklist:

1. En Plein Air (02:42)
2. Impasto (03:11)
3. Prussian Blue (04:05)
4. Natura Morta (03:05)
5. Panorama (03:39)
6. Alla Prima (03:07)
7. Umber (02:57)
8. Barocco, Ma Non Troppo (02:35)
9. Memento Mori (02:40)
10. Pentimento (02:10)
11. Natura Morta (reprise) (02:13)

foobar2000 1.4 / Dynamic Range Meter 1.1.1
log date: 2021-06-11 08:05:14

––––––––––––––––––––––––––––––––––––––––
Analyzed: Sven Wunder / Natura Morta
––––––––––––––––––––––––––––––––––––––––

DR Peak RMS Duration Track
––––––––––––––––––––––––––––––––––––––––
DR10 -1.00 dB -13.48 dB 2:43 01-En Plein Air
DR9 -1.00 dB -12.64 dB 3:12 02-Impasto
DR10 -1.00 dB -12.03 dB 4:05 03-Prussian Blue
DR9 -1.00 dB -12.24 dB 3:05 04-Natura Morta
DR9 -1.00 dB -12.91 dB 3:39 05-Panorama
DR9 -1.00 dB -12.68 dB 3:08 06-Alla Prima
DR9 -1.00 dB -11.86 dB 2:57 07-Umber
DR9 -1.00 dB -12.39 dB 2:36 08-Barocco, Ma Non Troppo
DR10 -1.05 dB -12.41 dB 2:41 09-Memento Mori
DR10 -1.00 dB -13.27 dB 2:11 10-Pentimento
DR9 -1.00 dB -13.57 dB 2:14 11-Natura Morta (reprise)
––––––––––––––––––––––––––––––––––––––––

Number of tracks: 11
Official DR value: DR9

Samplerate: 48000 Hz
Channels: 2
Bits per sample: 24
Bitrate: 1413 kbps
Codec: FLAC
================================================================================



Thanks to the Original customer!