Swedish Chamber Orchestra & Thomas Dausgaard - The Brandenburg Project (2021) [Official Digital Download 24/96]

Posted By: delpotro
Swedish Chamber Orchestra & Thomas Dausgaard - The Brandenburg Project (2021) [Official Digital Download 24/96]

Swedish Chamber Orchestra & Thomas Dausgaard - The Brandenburg Project (2021)
FLAC (tracks) 24-bit/96 kHz | Front Cover & Digital Booklet | Time - 206:24 minutes | 3,77 GB
Classical | Label: BIS, Official Digital Download

Along with Vivaldi’s ‘Seasons’ or Beethoven’s ‘Fifth’, Bach’s Brandenburg Concertos belong to those works that are so well-known that we risk taking them for granted. In order to (re-)discover the special qualities that can inspire us today, in 2001 Thomas Dausgaard and the Swedish Chamber Orchestra decided to contact six contemporary composer, asking each of them to compose a companion piece to one of the concertos. Seventeen years later, in 2018, it was time to present the result, with a performance at the BBC Proms of all the works – new and old. Recorded over a period of 18 months leading up to this event, the present boxed set provides a unique opportunity to experience six very different musical minds and idioms entering into conversation with Bach: Mark-Anthony Turnage, Steven Mackey, Anders Hillborg, Olga Neuwirth, Uri Caine and Brett Dean. Bach’s concertos are remarkable in that they are all scored for different instrumental combinations, and part of the brief to the group of composers was to reflect this. In her Aello, Olga Neuwirth has for instance used several ‘instruments’ to stand in for Bach’s harpsichord, including a synthesizer, a milk frother and a typewriter. Brett Dean, on the other hand, has stayed very close to Bach’s instrumentation, but has chosen to write his work as a preparation for Brandenburg Concerto No. 6 – an Approach to Bach’s extremely tight canonic writing. In performing the twelve works the orchestra and Dausgaard are joined by leading soloists including Clare Chase, Mahan Esfahani, Håkan Hardenberger, Pekka Kuusisto and Tabea Zimmermann.

Tracklist:
Disc 1 (01:01:55)
1. Marten Larsson, Thomas Dausgaard, Lisa Almberg, Daniel Burstedt, Mikael Lindstrom, Terése Larsson, Göran Hülphers, Antje Weithaas, Mahan Esfahani & Swedish Chamber Orchestra – Brandenburg Concerto No. 1 in F Major, BWV 1046: I. — (03:36)
2. Marten Larsson, Thomas Dausgaard, Lisa Almberg, Daniel Burstedt, Mikael Lindstrom, Terése Larsson, Göran Hülphers, Antje Weithaas, Mahan Esfahani & Swedish Chamber Orchestra – Brandenburg Concerto No. 1 in F Major, BWV 1046: II. Adagio (03:41)
3. Marten Larsson, Thomas Dausgaard, Lisa Almberg, Daniel Burstedt, Mikael Lindstrom, Terése Larsson, Göran Hülphers, Antje Weithaas, Mahan Esfahani & Swedish Chamber Orchestra – Brandenburg Concerto No. 1 in F Major, BWV 1046: III. Allegro (04:22)
4. Marten Larsson, Thomas Dausgaard, Lisa Almberg, Daniel Burstedt, Mikael Lindstrom, Terése Larsson, Göran Hülphers, Antje Weithaas, Mahan Esfahani & Swedish Chamber Orchestra – Brandenburg Concerto No. 1 in F Major, BWV 1046: IV. Menuet (06:30)
5. Maya Beiser, Swedish Chamber Orchestra & Thomas Dausgaard – Maya (14:35)
6. Fiona Kelly, Marten Larsson, Håkan Hardenberger, Antje Weithaas, Swedish Chamber Orchestra & Thomas Dausgaard – Brandenburg Concerto No. 2 in F Major, BWV 1047: I. — (04:41)
7. Fiona Kelly, Marten Larsson, Håkan Hardenberger, Antje Weithaas, Swedish Chamber Orchestra & Thomas Dausgaard – Brandenburg Concerto No. 2 in F Major, BWV 1047: II. Andante (03:19)
8. Fiona Kelly, Marten Larsson, Håkan Hardenberger, Antje Weithaas, Swedish Chamber Orchestra & Thomas Dausgaard – Brandenburg Concerto No. 2 in F Major, BWV 1047: III. Allegro assai (02:32)
9. Fiona Kelly, Marten Larsson, Håkan Hardenberger, Antje Weithaas, Swedish Chamber Orchestra & Thomas Dausgaard – Triceros (18:39)

Disc 2 (01:05:14)
1. Pekka Kuusisto, Sebastien Dube, Mahan Esfahani, Swedish Chamber Orchestra & Thomas Dausgaard – Brandenburg Concerto No. 3 in G Major, BWV 1048 (Excerpts): I. — (05:29)
2. Pekka Kuusisto, Sebastien Dube, Mahan Esfahani, Swedish Chamber Orchestra & Thomas Dausgaard – Very Tender (After Bach's BWV 1048) (01:06)
3. Pekka Kuusisto, Sebastien Dube, Mahan Esfahani, Swedish Chamber Orchestra & Thomas Dausgaard – Brandenburg Concerto No. 3 in G Major, BWV 1048 (Excerpts): III. Allegro (04:44)
4. Pekka Kuusisto, Sebastien Dube, Swedish Chamber Orchestra & Thomas Dausgaard – Bach materia (After Bach's BWV 1048): Beginning (06:50)
5. Pekka Kuusisto, Sebastien Dube, Swedish Chamber Orchestra & Thomas Dausgaard – Bach materia (After Bach's BWV 1048): Cadenza (1) (03:07)
6. Pekka Kuusisto, Sebastien Dube, Swedish Chamber Orchestra & Thomas Dausgaard – Bach materia (After Bach's BWV 1048): Bar 110 (05:48)
7. Pekka Kuusisto, Sebastien Dube, Swedish Chamber Orchestra & Thomas Dausgaard – Bach materia (After Bach's BWV 1048): Cadenza (2) (03:02)
8. Pekka Kuusisto, Sebastien Dube, Swedish Chamber Orchestra & Thomas Dausgaard – Bach materia (After Bach's BWV 1048): Bar 191 (03:32)
9. Pekka Kuusisto, Per Gross, Katarina Widell, Swedish Chamber Orchestra & Thomas Dausgaard – Brandenburg Concerto No. 4 in G Major, BWV 1049: I. Allegro (06:46)
10. Pekka Kuusisto, Per Gross, Katarina Widell, Swedish Chamber Orchestra & Thomas Dausgaard – Brandenburg Concerto No. 4 in G Major, BWV 1049: II. Andante (03:24)
11. Pekka Kuusisto, Per Gross, Katarina Widell, Swedish Chamber Orchestra & Thomas Dausgaard – Brandenburg Concerto No. 4 in G Major, BWV 1049: III. Presto (04:32)
12. Claire Chase, Anders Hemstrom, Margit Csökmei, Swedish Chamber Orchestra & Thomas Dausgaard – Aello: I. — (08:05)
13. Claire Chase, Anders Hemstrom, Margit Csökmei, Swedish Chamber Orchestra & Thomas Dausgaard – Aello: II. — (05:07)
14. Claire Chase, Anders Hemstrom, Margit Csökmei, Swedish Chamber Orchestra & Thomas Dausgaard – Aello: III. — (03:42)

Disc 3 (01:19:00)
1. Fiona Kelly, Antje Weithaas, Mahan Esfahani, Swedish Chamber Orchestra & Thomas Dausgaard – Brandenburg Concerto No. 5 in D Major, BWV 1050: I. Allegro (09:32)
2. Fiona Kelly, Antje Weithaas, Mahan Esfahani, Swedish Chamber Orchestra & Thomas Dausgaard – Brandenburg Concerto No. 5 in D Major, BWV 1050: II. Affettuoso (04:54)
3. Fiona Kelly, Antje Weithaas, Mahan Esfahani, Swedish Chamber Orchestra & Thomas Dausgaard – Brandenburg Concerto No. 5 in D Major, BWV 1050: III. Allegro (05:12)
4. Fiona Kelly, Antje Weithaas, Uri Caine, Swedish Chamber Orchestra & Thomas Dausgaard – Hamsa: I. Fast (11:17)
5. Fiona Kelly, Antje Weithaas, Uri Caine, Swedish Chamber Orchestra & Thomas Dausgaard – Hamsa: II. Adagio (09:55)
6. Fiona Kelly, Antje Weithaas, Uri Caine, Swedish Chamber Orchestra & Thomas Dausgaard – Hamsa: III. Vivace (09:25)
7. Tabea Zimmermann, Brett Dean, Swedish Chamber Orchestra & Thomas Dausgaard – Approach (Prelude to a Canon): I. Allegro impetuoso, volatile (03:21)
8. Tabea Zimmermann, Brett Dean, Swedish Chamber Orchestra & Thomas Dausgaard – Approach (Prelude to a Canon): II. Calm, Serene (05:08)
9. Tabea Zimmermann, Brett Dean, Swedish Chamber Orchestra & Thomas Dausgaard – Approach (Prelude to a Canon): III. Slightly Agitated Though Unhurried (04:21)
10. Tabea Zimmermann, Brett Dean, Swedish Chamber Orchestra & Thomas Dausgaard – Brandenburg Concerto No. 6 in B-Flat Major, BWV 1051: I. — (05:25)
11. Tabea Zimmermann, Brett Dean, Swedish Chamber Orchestra & Thomas Dausgaard – Brandenburg Concerto No. 6 in B-Flat Major, BWV 1051: II. Adagio, ma non tanto (04:42)
12. Tabea Zimmermann, Brett Dean, Swedish Chamber Orchestra & Thomas Dausgaard – Brandenburg Concerto No. 6 in B-Flat Major, BWV 1051: III. Allegro (05:48)

foobar2000 1.4.1 / Dynamic Range Meter 1.1.1
log date: 2021-04-08 12:24:14

––––––––––––––––––––––––––––––––––––––––
Analyzed: Swedish Chamber Orchestra & Thomas Dausgaard / The Brandenburg Project
––––––––––––––––––––––––––––––––––––––––

DR Peak RMS Duration Track
––––––––––––––––––––––––––––––––––––––––
DR11 -1.05 dB -15.89 dB 3:36 01-Bach: Brandenburg Concerto No. 1 in F Major, BWV 1046: I. —
DR11 -5.96 dB -21.44 dB 3:41 02-Bach: Brandenburg Concerto No. 1 in F Major, BWV 1046: II. Adagio
DR12 -0.20 dB -16.82 dB 4:23 03-Bach: Brandenburg Concerto No. 1 in F Major, BWV 1046: III. Allegro
DR12 -0.20 dB -17.11 dB 6:30 04-Bach: Brandenburg Concerto No. 1 in F Major, BWV 1046: IV. Menuet
DR14 -0.20 dB -19.69 dB 14:36 05-Turnage: Maya
DR12 -1.56 dB -16.08 dB 4:42 06-Bach: Brandenburg Concerto No. 2 in F Major, BWV 1047: I. —
DR10 -4.74 dB -20.51 dB 3:19 07-Bach: Brandenburg Concerto No. 2 in F Major, BWV 1047: II. Andante
DR12 -0.20 dB -16.15 dB 2:32 08-Bach: Brandenburg Concerto No. 2 in F Major, BWV 1047: III. Allegro assai
DR14 -0.20 dB -19.02 dB 18:39 09-Mackey: Triceros
DR12 -2.35 dB -18.24 dB 5:29 10-Bach: Brandenburg Concerto No. 3 in G Major, BWV 1048 (Excerpts): I. —
DR10 -11.89 dB -25.24 dB 1:06 11-Hillborg: Very Tender (After Bach's BWV 1048)
DR13 -4.04 dB -19.65 dB 4:44 12-Bach: Brandenburg Concerto No. 3 in G Major, BWV 1048 (Excerpts): III. Allegro
DR14 -0.37 dB -19.87 dB 6:51 13-Hillborg: Bach materia (After Bach's BWV 1048): Beginning
DR14 -0.78 dB -18.76 dB 3:07 14-Hillborg: Bach materia (After Bach's BWV 1048): Cadenza (1)
DR14 -0.36 dB -21.78 dB 5:48 15-Hillborg: Bach materia (After Bach's BWV 1048): Bar 110
DR17 -2.92 dB -24.60 dB 3:03 16-Hillborg: Bach materia (After Bach's BWV 1048): Cadenza (2)
DR14 -0.36 dB -19.08 dB 3:33 17-Hillborg: Bach materia (After Bach's BWV 1048): Bar 191
DR13 -1.27 dB -17.59 dB 6:47 18-Bach: Brandenburg Concerto No. 4 in G Major, BWV 1049: I. Allegro
DR11 -3.83 dB -18.79 dB 3:25 19-Bach: Brandenburg Concerto No. 4 in G Major, BWV 1049: II. Andante
DR13 -0.36 dB -16.96 dB 4:32 20-Bach: Brandenburg Concerto No. 4 in G Major, BWV 1049: III. Presto
DR15 -0.81 dB -19.17 dB 8:06 21-Neuwirth: Aello: I. —
DR16 -0.82 dB -22.48 dB 5:07 22-Neuwirth: Aello: II. —
DR14 -0.82 dB -19.29 dB 3:42 23-Neuwirth: Aello: III. —
DR14 -0.20 dB -19.37 dB 9:33 24-Bach: Brandenburg Concerto No. 5 in D Major, BWV 1050: I. Allegro
DR11 -5.37 dB -22.20 dB 4:54 25-Bach: Brandenburg Concerto No. 5 in D Major, BWV 1050: II. Affettuoso
DR13 -0.23 dB -18.66 dB 5:13 26-Bach: Brandenburg Concerto No. 5 in D Major, BWV 1050: III. Allegro
DR14 -0.20 dB -17.74 dB 11:18 27-Caine: Hamsa: I. Fast
DR14 -2.56 dB -22.84 dB 9:55 28-Caine: Hamsa: II. Adagio
DR15 -0.20 dB -18.53 dB 9:25 29-Caine: Hamsa: III. Vivace
DR11 -3.72 dB -19.99 dB 3:21 30-Dean: Approach (Prelude to a Canon): I. Allegro impetuoso, volatile
DR14 -3.80 dB -26.30 dB 5:09 31-Dean: Approach (Prelude to a Canon): II. Calm, Serene
DR13 -1.33 dB -21.81 dB 4:22 32-Dean: Approach (Prelude to a Canon): III. Slightly Agitated Though Unhurried
DR13 -2.50 dB -19.71 dB 5:25 33-Bach: Brandenburg Concerto No. 6 in B-Flat Major, BWV 1051: I. —
DR12 -8.73 dB -24.96 dB 4:42 34-Bach: Brandenburg Concerto No. 6 in B-Flat Major, BWV 1051: II. Adagio, ma non tanto
DR13 -2.91 dB -19.89 dB 5:48 35-Bach: Brandenburg Concerto No. 6 in B-Flat Major, BWV 1051: III. Allegro
––––––––––––––––––––––––––––––––––––––––

Number of tracks: 35
Official DR value: DR13

Samplerate: 96000 Hz
Channels: 2
Bits per sample: 24
Bitrate: 2596 kbps
Codec: FLAC
================================================================================


Thanks to the Original customer!