VA - The Best of Whirlin Disc Records (1956/2019) [Official Digital Download 24/96]

Posted By: El Misha
VA - The Best of Whirlin Disc Records (1956/2019) [Official Digital Download 24/96]

VA - The Best of Whirlin Disc Records (1956/2019)
FLAC (tracks) 24-bit/96 kHz | Time - 42:59 | 780 MB
Studio Master, Official Digital Download | Artwork: Front cover

The Best of Whirlin Disc Records is a English album released on Oct 1956. The Best of Whirlin Disc Records Album has 16 songs sung by The Continentals, The Channels, The Whirlers.



Tracklist:

1. The Continentals - Dear Lord
2. The Channels - What Do You Do
3. The Quadrells - Come to Me
4. The Whirlers - Tonight and Forever
5. The Continentals - Soft and Sweet
6. The Empires - Whispering Heart
7. The Pretenders - Part Time Sweetheart
8. The Continentals - Fine Fine Frame (Unreleased Version W/False Start)
9. The Channels - I Really Love You
10. The Continentals - Picture of Love
11. The Pretenders - Close Your Eyes
12. The Continentals - Fine Fine Frame
13. The Quadrells - What Can the Matter Be
14. The Whirlers - Magic Mirror
15. The Empires - Linda
16. The Continentals - Dear Lord (Unreleased Version)

foobar2000 1.4 / Dynamic Range Meter 1.1.1
log date: 2021-01-14 06:18:14

––––––––––––––––––––––––––––––––––––––––
Analyzed: The Channels / The Best of Whirlin Disc Records (1-2)
The Continentals / The Best of Whirlin Disc Records (3-8)
The Empires / The Best of Whirlin Disc Records (9-10)
The Pretenders / The Best of Whirlin Disc Records (11-12)
The Quadrells / The Best of Whirlin Disc Records (13-14)
The Whirlers / The Best of Whirlin Disc Records (15-16)
––––––––––––––––––––––––––––––––––––––––

DR Peak RMS Duration Track
––––––––––––––––––––––––––––––––––––––––
DR9 -1.21 dB -11.98 dB 2:14 02-What Do You Do
DR10 -1.22 dB -13.06 dB 2:55 09-I Really Love You
DR10 -1.22 dB -13.66 dB 2:50 01-Dear Lord
DR11 -1.84 dB -14.81 dB 2:27 05-Soft and Sweet
DR10 -1.21 dB -12.86 dB 2:46 08-Fine Fine Frame (Unreleased Version W/False Start)
DR11 -1.21 dB -13.36 dB 2:44 10-Picture of Love
DR10 -1.21 dB -12.86 dB 2:46 12-Fine Fine Frame
DR11 -1.60 dB -15.85 dB 2:52 16-Dear Lord (Unreleased Version)
DR12 -1.22 dB -14.61 dB 2:46 06-Whispering Heart
DR12 -1.22 dB -14.37 dB 2:47 15-Linda
DR10 -1.21 dB -12.48 dB 2:35 07-Part Time Sweetheart
DR10 -1.20 dB -13.40 dB 3:13 11-Close Your Eyes
DR12 -1.21 dB -14.72 dB 3:12 03-Come to Me
DR12 -1.21 dB -14.00 dB 2:36 13-What Can the Matter Be
DR11 -1.22 dB -13.53 dB 2:09 04-Tonight and Forever
DR11 -1.22 dB -14.18 dB 2:17 14-Magic Mirror
––––––––––––––––––––––––––––––––––––––––

Number of tracks: 16
Official DR value: DR11

Samplerate: 96000 Hz
Channels: 2
Bits per sample: 24
Bitrate: 2257 kbps
Codec: FLAC
================================================================================



Thanks to the Original customer!