The Danish National Symphony Orchestra - The Morricone Duel: The Most Dangerous Concert Ever (Live) (2020) [ODD]

Posted By: El Misha
The Danish National Symphony Orchestra - The Morricone Duel: The Most Dangerous Concert Ever (Live) (2020) [ODD]

The Danish National Symphony Orchestra - The Morricone Duel: The Most Dangerous Concert Ever (Live) (2020)
FLAC (tracks) 24-bit/48 kHz | Time - 01:04:12 | 665 MB
Studio Master, Official Digital Download | Artwork: Front cover

The Wild West meets the soulful sound of Italy. Fearless New York gangsters meet cowboys from the dusty prairie. Godfather meets Taxi Driver. And the magic of cinema meets the rich sound of a first-class symphony orchestra. This exclusive live concert production presents a unique selection of movie classics - from Sergio Leone's iconic Spaghetti Westerns to modern mafia masterpieces by Francis Ford Coppola and the cult movies of Tarantino. The Danish National Symphony Orchestra is conducted by Sarah Hicks and joined by a fistful of strong guest artists for this premiere performance of the authentic soundtracks by composer legends Ennio Morricone, Nino Rota, Sonny Bono and Bernard Herrmann.



Tracklist:

1. Dopo la Condanna (From "The Big Gundown" and "Inglourious Basterds") (Live)
2. A Fistful of Dollars (Live)
3. Overture (From "The Hateful Eight") (Live)
4. Suite: Man with a Harmonica, Cheyenne, Main Theme (From "Once Upon a Time in the West") (Live)
5. A Night Piece (From "Taxi Driver") (Live)
6. The Strength of the Righteous (From "the Untouchables") (Live)
7. The Ecstasy of Gold (From "The Good, The Bad and the Ugly") (Live)
8. Suite: "Deborah's Theme" and "Poverty" (From "Once Upon a Time In America") (Live)
9. Bang Bang (My Baby Shot Me Down) [From "Kill Bill"] (Live)
10. The Sicilian Clan (Live)
11. Orchestral Suite (From "The Godfather") (Live)
12. For a Few Dollars More (Live)

Tuva Semmingsen, mezzo-soprano
Christine Nonbo Andersen, soprano
Hans Ulrik, saxophone
Mads Kjolby, guitar
Danish National Concert Choir
Danish National Symphony Orchestra
Sarah Hicks, conductor

foobar2000 1.4 / Dynamic Range Meter 1.1.1
log date: 2021-06-15 10:02:06

––––––––––––––––––––––––––––––––––––––––
Analyzed: The Danish National Symphony Orchestra / The Morricone Duel: The Most Dangerous Concert Ever (Live)
––––––––––––––––––––––––––––––––––––––––

DR Peak RMS Duration Track
––––––––––––––––––––––––––––––––––––––––
DR10 -3.78 dB -19.46 dB 2:22 01-Dopo la Condanna (From "The Big Gundown" and "Inglourious Basterds") (Live)
DR12 -4.82 dB -20.12 dB 2:53 02-A Fistful of Dollars (Live)
DR11 -3.38 dB -20.79 dB 3:18 03-Overture (From "The Hateful Eight") (Live)
DR12 -2.50 dB -19.99 dB 8:43 04-Suite: Man with a Harmonica, Cheyenne, Main Theme (From "Once Upon a Time in the West") (Live)
DR12 -2.33 dB -18.39 dB 8:03 05-A Night Piece (From "Taxi Driver") (Live)
DR14 -2.33 dB -19.03 dB 2:11 06-The Strength of the Righteous (From "the Untouchables") (Live)
DR10 -0.50 dB -15.96 dB 5:58 07-The Ecstasy of Gold (From "The Good, The Bad and the Ugly") (Live)
DR13 -5.20 dB -24.60 dB 7:47 08-Suite: "Deborah's Theme" and "Poverty" (From "Once Upon a Time In America") (Live)
DR11 -6.04 dB -20.97 dB 2:51 09-Bang Bang (My Baby Shot Me Down) [From "Kill Bill"] (Live)
DR10 -2.11 dB -15.22 dB 4:15 10-The Sicilian Clan (Live)
DR13 -2.34 dB -20.39 dB 12:04 11-Orchestral Suite (From "The Godfather") (Live)
DR11 -2.24 dB -17.42 dB 3:50 12-For a Few Dollars More (Live)
––––––––––––––––––––––––––––––––––––––––

Number of tracks: 12
Official DR value: DR12

Samplerate: 48000 Hz
Channels: 2
Bits per sample: 24
Bitrate: 1521 kbps
Codec: FLAC
================================================================================



Thanks to the Original customer!