The Hot Sardines - French Fries & Champagne (2016) [Official Digital Download 24/96]

Posted By: El Misha
The Hot Sardines - French Fries & Champagne (2016) [Official Digital Download 24/96]

The Hot Sardines - French Fries & Champagne (2016)
FLAC (tracks) 24-bit/96 kHz | Time - 41:48 | 858 MB
Studio Master, Official Digital Download | Artwork: Front cover+digital booklet

This second album from New York-based The Hot Sardines features music first made famous decades ago, reinvented and brought to life by the group's brassy horn arrangements, rollicking piano melodies and vocals from a chanteuse who evokes a different era with the mere lilt of her voice.



Tracklist:

01. Running Wild
02. People Will Say Were In Love
03. When I Get Low I Get High
04. Addicted To Love
05. Sweet Pea
06. Comes Love (L’amour S’en Fout) Medley
07. Here You Are Again
08. Until The Real Thing Comes Along
09. French Fries & Champagne
10. La Fille Aux Cheveux Roux (Weed Smokers Dream)
11. Gramercy Sunset

foobar2000 1.3.12 / Замер динамического диапазона (DR) 1.1.1
Дата отчёта: 2016-11-14 14:25:45

––––––––––––––––––––––––––––––––––––––––
Анализ: The Hot Sardines / French Fries & Champagne
––––––––––––––––––––––––––––––––––––––––

DR Пики RMS Продолжительность трека
––––––––––––––––––––––––––––––––––––––––
DR9 0.00 дБ -11.28 дБ 3:26 01-Running Wild
DR10 -0.16 дБ -12.44 дБ 3:27 02-People Will Say We’re In Love
DR9 0.00 дБ -11.34 дБ 3:48 03-When I Get Low I Get High
DR9 0.00 дБ -11.61 дБ 3:26 04-Addicted To Love
DR10 -0.23 дБ -12.31 дБ 2:22 05-Sweet Pea
DR11 0.00 дБ -15.60 дБ 5:09 06-Comes Love (L'amour S'en Fout) Medley
DR9 0.00 дБ -12.39 дБ 3:37 07-Here You Are Again
DR10 0.00 дБ -13.93 дБ 4:49 08-Until The Real Thing Comes Along
DR8 0.00 дБ -11.41 дБ 3:02 09-French Fries & Champagne
DR9 -0.14 дБ -12.29 дБ 4:27 10-La Fille Aux Cheveux Roux (Weed Smoker’s Dream)
DR12 -0.81 дБ -15.89 дБ 4:15 11-Gramercy Sunset
––––––––––––––––––––––––––––––––––––––––

Количество треков: 11
Реальные значения DR: DR10

Частота: 96000 Гц
Каналов: 2
Разрядность: 24
Битрейт: 2658 кбит/с
Кодек: FLAC
================================================================================


Thanks to the Original customer!