The Players Association - Turn The Music Up! (Remastered) (1977/2020) [Official Digital Download 24/192]

Posted By: El Misha
The Players Association - Turn The Music Up! (Remastered) (1977/2020) [Official Digital Download 24/192]

The Players Association - Turn The Music Up! (Remastered) (1977/2020)
FLAC (tracks) 24-bit/192 kHz | Time - 37:11 | 1.41 GB
Studio Master, Official Digital Download | Artwork: Front cover

The Players Association weren't exactly the band du jour in disco's heyday, but they did manage to strike up a modest cult following with their first two releases, reissued here by the excellent Ace Records imprint. Make no mistake, this isn't pure commercial disco à la the chart-toppers of the time; rather, this is a wonderful hybrid of jazz, funk, and disco by skilled musicians. Granted, many of the better tunes here are covers, but "Hustlin'" and "Ride the Groove" are probably the best two tracks the band ever recorded. This is quite easily all the Players Association you could possibly want or need in your record collection.



Tracklist:

1. The Players Association - Turn The Music Up!
2. The Players Association - The Closer I Get To You
3. The Players Association - Everybody Dance (Clap Your Hands)
4. The Players Association - I Wish
5. The Players Association - More Than A Little Bit
6. The Players Association - Ride The Groove

foobar2000 1.4 / Dynamic Range Meter 1.1.1
log date: 2021-01-14 06:47:23

––––––––––––––––––––––––––––––––––––––––
Analyzed: The Players Association / Turn The Music Up!
––––––––––––––––––––––––––––––––––––––––

DR Peak RMS Duration Track
––––––––––––––––––––––––––––––––––––––––
DR14 -0.50 dB -16.36 dB 6:49 01-Turn The Music Up!
DR14 -0.50 dB -16.98 dB 4:41 02-The Closer I Get To You
DR15 -0.50 dB -17.15 dB 6:51 03-Everybody Dance (Clap Your Hands)
DR15 -0.50 dB -17.30 dB 5:45 04-I Wish
DR16 -0.50 dB -17.93 dB 6:26 05-More Than A Little Bit
DR15 -0.50 dB -17.11 dB 6:42 06-Ride The Groove
––––––––––––––––––––––––––––––––––––––––

Number of tracks: 6
Official DR value: DR15

Samplerate: 192000 Hz
Channels: 2
Bits per sample: 24
Bitrate: 5540 kbps
Codec: FLAC
================================================================================



Thanks to the Original customer!