Tags
Language
Tags

The Amazing Keystone Big Band - Christmas Celebration (2021) [Official Digital Download 24/48]

Posted By: delpotro
The Amazing Keystone Big Band - Christmas Celebration (2021) [Official Digital Download 24/48]

The Amazing Keystone Big Band - Christmas Celebration (2021)
FLAC (tracks) 24-bit/48 kHz | Front Cover & Digital Booklet | Time - 48:14 minutes | 579 MB
Jazz, Big Band, Vocal Jazz, Xmas | Label: Association Moose, Official Digital Download

As the end of the year holidays approach, who did not want to go skating on the frozen lake of Central Park, then stroll through the snow-covered streets of Manhattan, guided by the sound of the choirs at the gates of each household? In the tradition of Christmas albums, the brilliant Keystone Big Band has released the most beautiful and famous Christmas songs from its hood.

Accompanied by the beautiful voices of Célia Kameni and Pablo Campos, Christmas Celebration will make your little shoes swing - before putting them at the foot of the tree!

Prolific, learned and creative, the seventeen acolytes of the group have not left each other since the Conservatory, they form a real family. Their complicity translates into a tremendous energy that sublimates these essential melodies. In line with the great swing groups of the 1930s and 1940s, they nonetheless embody the new generation of jazz: in 2018, they were awarded "Group of the Year" at the Victoires du Jazz.

Tracklist:
1. Let It Snow! Let It Snow! Let It Snow! (03:39)
2. Christmas Song (03:59)
3. Zat You, Santa Claus? (02:53)
4. No Place Like Home (04:18)
5. Frosty the Snowman (Steve Nelson) (02:57)
6. Santa Claus Is Coming to Town (02:14)
7. It Came Upon the Midnight Clear (06:36)
8. Santa Claus Got Stuck in My Chimney (03:48)
9. Far Away Christmas Blues (04:59)
10. At the Christmas Ball (03:04)
11. Douce nuit (05:53)
12. Jingle Bells (03:48)

foobar2000 1.4.1 / Dynamic Range Meter 1.1.1
log date: 2021-12-22 15:57:52

––––––––––––––––––––––––––––––––––––––––
Analyzed: The Amazing Keystone Big Band, Celia Kameni, Pablo Campos / Christmas Celebration (1)
The Amazing Keystone Big Band, Celia Kameni / Christmas Celebration (2-7)
The Amazing Keystone Big Band, Pablo Campos / Christmas Celebration (8-12)
––––––––––––––––––––––––––––––––––––––––

DR Peak RMS Duration Track
––––––––––––––––––––––––––––––––––––––––
DR10 -0.01 dB -12.52 dB 3:49 12-Jingle Bells
DR12 -0.03 dB -15.09 dB 4:00 02-Christmas Song
DR9 -0.01 dB -10.94 dB 4:18 04-No Place Like Home
DR10 -0.01 dB -12.46 dB 2:15 06-Santa Claus Is Coming to Town
DR10 -0.01 dB -14.03 dB 6:37 07-It Came Upon the Midnight Clear
DR11 -0.01 dB -13.48 dB 3:48 08-Santa Claus Got Stuck in My Chimney
DR9 -0.01 dB -12.49 dB 5:53 11-Douce nuit
DR9 -0.01 dB -11.67 dB 3:39 01-Let It Snow! Let It Snow! Let It Snow!
DR9 -0.01 dB -11.44 dB 2:53 03-Zat You, Santa Claus?
DR10 -0.01 dB -11.66 dB 2:58 05-Frosty the Snowman (Steve Nelson)
DR9 -0.01 dB -11.84 dB 5:00 09-Far Away Christmas Blues
DR9 -0.01 dB -11.75 dB 3:04 10-At the Christmas Ball
––––––––––––––––––––––––––––––––––––––––

Number of tracks: 12
Official DR value: DR10

Samplerate: 48000 Hz
Channels: 2
Bits per sample: 24
Bitrate: 1631 kbps
Codec: FLAC
================================================================================


Thanks to the Original customer!