The Gospellers - a cappella 2 (2021) [Official Digital Download 24/96]

Posted By: shamanicus
The Gospellers - a cappella 2 (2021) [Official Digital Download 24/96]

The Gospellers - a cappella 2 (2021)
FLAC (tracks) 24-bit/96 kHz | 50:17 | 1025 mb
Studio Master, Official Digital Download | Artwork: front cover

The Gospellers released their new album "A Cappella 2" on March 10.
It's been over 18 years since the group released their last a cappella album "A Cappella" in December of 2002. Their upcoming album will be released in both limited and regular editions.

Tracklist:

01. INFINITY
02. VOXers
03. Loving Out Loud
04. Ameagari
05. I Want You
06. Darekanosyatsu
07. Hanareteitemo -Wherever you are-
08. Harmonion
09. OVER & OVER
10. Magic number
11. Uso to Maho
12. Kazegakikoeru
13. Interval


foobar2000 1.4 / Dynamic Range Meter 1.1.1
log date: 2021-03-14 23:21:55

––––––––––––––––––––––––––––––––––––––––
Analyzed: The Gospellers / a cappella 2
––––––––––––––––––––––––––––––––––––––––

DR Peak RMS Duration Track
––––––––––––––––––––––––––––––––––––––––
DR9 -0.84 dB -11.17 dB 3:23 01-INFINITY
DR8 -0.90 dB -10.78 dB 3:35 02-VOXers
DR6 -0.70 dB -8.62 dB 4:00 03-Loving Out Loud
DR7 -0.52 dB -9.34 dB 3:16 04-Ameagari
DR9 -0.05 dB -10.83 dB 3:26 05-I Want You
DR9 0.00 dB -10.40 dB 3:41 06-Darekanosyatsu
DR9 -0.34 dB -11.74 dB 5:10 07-Hanareteitemo -Wherever you are-
DR9 -0.07 dB -11.95 dB 3:16 08-Harmonion
DR10 -0.15 dB -11.92 dB 4:11 09-OVER & OVER
DR9 -1.30 dB -11.59 dB 4:05 10-Magic number
DR9 -0.72 dB -10.93 dB 3:37 11-Uso to Maho
DR9 0.00 dB -10.19 dB 3:55 12-Kazegakikoeru
DR7 -2.00 dB -11.97 dB 4:41 13-Interval
––––––––––––––––––––––––––––––––––––––––

Number of tracks: 13
Official DR value: DR9

Samplerate: 96000 Hz
Channels: 2
Bits per sample: 24
Bitrate: 2759 kbps
Codec: FLAC
================================================================================




Thanks to the Original customer.