Tags
Language
Tags

Theo Pas'cal - Quamundos 2 (2022) [Official Digital Download 24/48]

Posted By: delpotro
Theo Pas'cal - Quamundos 2 (2022) [Official Digital Download 24/48]

Theo Pas'cal - Quamundos 2 (2022)
FLAC (tracks) 24-bit/48 kHz | Front Cover | Time - 46:35 minutes | 484 MB
Contemporary Jazz | Label: Galileo Music Communication, Official Digital Download

Theo Pascal, bassist, composer and pioneer producer in the Jazz Lusophone scene, leads QUAMUNDOS2, a powerful collective made of Portuguese musicians with a heritage connection to several countries like Angola, Moçambique, Cabo Verde, India, S.tomé, etc. Featuring special guests: long-time collaborator and award-winning acclaimed singer-songwriter - Carmen Souza - on piano, Rhodes and vocals. Plus virtuoso Saxophonist Lenny Sendersky from St. Petersburg, based in Tel Aviv/Israel.

Tracklist:
01. Imperfect Cause Maximbombo
02. Discover Me
03. Planet Smile
04. Kutequatekessa Quamundos
05. Love and Justice
06. Mutebass
07. I Don't Mean to Be a Pain
08. Rotation
09. I Love People
10. Settlement

foobar2000 1.4.1 / Dynamic Range Meter 1.1.1
log date: 2022-05-19 10:50:38

––––––––––––––––––––––––––––––––––––––––
Analyzed: Theo Pas'cal / Quamundos 2
––––––––––––––––––––––––––––––––––––––––

DR Peak RMS Duration Track
––––––––––––––––––––––––––––––––––––––––
DR11 -0.50 dB -13.18 dB 4:38 01-Imperfect Cause Maximbombo
DR9 -0.90 dB -12.96 dB 5:15 02-Discover Me
DR13 -0.50 dB -14.76 dB 5:05 03-Planet Smile
DR9 -0.48 dB -11.49 dB 4:19 04-Kutequatekessa Quamundos
DR11 -0.30 dB -13.41 dB 4:20 05-Love and Justice
DR11 -0.50 dB -13.10 dB 3:52 06-Mutebass
DR10 -0.40 dB -12.84 dB 4:48 07-I Don't Mean to Be a Pain
DR10 -0.39 dB -12.49 dB 4:05 08-Rotation
DR10 -0.88 dB -13.69 dB 4:52 09-I Love People
DR10 -0.90 dB -13.04 dB 5:21 10-Settlement
––––––––––––––––––––––––––––––––––––––––

Number of tracks: 10
Official DR value: DR10

Samplerate: 48000 Hz
Channels: 2
Bits per sample: 24
Bitrate: 1440 kbps
Codec: FLAC
================================================================================


Thanks to the Original customer!