Tim Berne, Chris Speed, Reid Anderson & Dave King - Broken Shadows (2021) [Official Digital Download 24/96]

Posted By: delpotro
Tim Berne, Chris Speed, Reid Anderson & Dave King - Broken Shadows (2021) [Official Digital Download 24/96]

Tim Berne, Chris Speed, Reid Anderson & Dave King - Broken Shadows (2021)
FLAC (tracks) 24-bit/96 kHz | Front Cover & Digital Booklet | Time - 44:30 minutes | 1,44 GB
Avant-Garde Jazz | Label: Intakt Records, Official Digital Download

Broken Shadows brings together four luminaries of the American jazz scene: Tim Berne, Chris Speed, Reid Anderson and Dave King. Broken Shadows has very strong connections, intwos. Saxophonists Tim Berne and Chris Speed have been playing together since 1992; Bassist Reid Anderson and drummer Dave King – two thirds of the legendary band The Bad Plus –have been playing together for over 35 years.Named after an Ornette Coleman composition, this all-star project honors the legacy of the music of their idols and mentors Ornette Coleman, Dewey Redman, Charlie Haden and Julius Hemphill. "Most all of the songs have melodies; infectious and singable.Songs you would want to put in your pocket and take them home.In a time of songs treated as vehicles for improvisation, with this band, the vehicle is the song", writes Branford Marsalis in the liner notes, celebrating the emotional power and impact of BrokenShadows: "Harmonic data does not create emotion; the ability to change color in ones sound does. This is something that Broken Shadows understand, be it explicit or implicit. The twelve tracks range from lamentation, or insouciant swagger, to utter joy, and all the colors in between."

Tracklist:
01. Street Woman
02. Body
03. Toy Dance
04. Ecars
05. Civilisation Day
06. Comme il Faut
07. Dogon A.D.
08. C.O.D.
09. Una Muy Bonita
10. Song for Ché
11. Walls-Bridges
12. Broken Shadows

foobar2000 1.4.1 / Dynamic Range Meter 1.1.1
log date: 2021-05-19 14:47:36

––––––––––––––––––––––––––––––––––––––––
Analyzed: Tim Berne, Chris Speed, Reid Anderson & Dave King / Broken Shadows
––––––––––––––––––––––––––––––––––––––––

DR Peak RMS Duration Track
––––––––––––––––––––––––––––––––––––––––
DR7 -0.30 dB -9.14 dB 2:34 01-Street Woman
DR8 -0.30 dB -9.76 dB 3:36 02-Body
DR7 -0.30 dB -8.90 dB 4:02 03-Toy Dance
DR10 -0.30 dB -12.08 dB 3:54 04-Ecars
DR7 -0.30 dB -8.97 dB 2:07 05-Civilisation Day
DR8 -0.30 dB -11.40 dB 3:23 06-Comme il Faut
DR8 -0.30 dB -10.59 dB 6:58 07-Dogon A.D.
DR8 -0.30 dB -9.51 dB 3:05 08-C.O.D.
DR9 -0.30 dB -10.56 dB 3:54 09-Una Muy Bonita
DR9 -0.30 dB -11.65 dB 3:07 10-Song for Ché
DR7 -0.30 dB -9.73 dB 2:36 11-Walls-Bridges
DR10 -0.30 dB -13.13 dB 5:14 12-Broken Shadows
––––––––––––––––––––––––––––––––––––––––

Number of tracks: 12
Official DR value: DR8

Samplerate: 96000 Hz
Channels: 2
Bits per sample: 24
Bitrate: 4616 kbps
Codec: FLAC
================================================================================


Thanks to the Original customer!