Tags
Language
Tags

Tim Montana - Long Shots (2021) [Official Digital Download]

Posted By: delpotro
Tim Montana - Long Shots (2021) [Official Digital Download]

Tim Montana - Long Shots (2021)
FLAC (tracks) 24-bit/44,1 kHz | Front Cover | Time - 39:38 minutes | 470 MB
Country Rock | Label: Broken Bow Records, Official Digital Download

After hustling for many years, Country rocker Tim Montana today announces his first album as a signed artist, Long Shots, will be released on April 9 via Music Knox Records/BBR Music Group. The Montana native blends Country with rock electric guitar and influences from the West to deliver a collection of 12 songs that embraces hard and fast-living, the American experience and the blue-collar way.

The music is unapologetic, relatable and raw as it draws stories and imagery from Tim’s days growing up in a single-wide north of Butte, Montana without electricity, grinding it out by taking odd jobs just to pay the bills (like cleaning kennels, operating a carousel, being a ranch hand) and hard living on the road. The album title is a nod to the hard road Montana had to take to arrive at this moment and how as improbable as his ambitions may have seemed, he overcame his struggles and all of the odds—and he did it his own way. As a whole, this album is an ode to the underdogs and screams “hard work pays off.”

“I heard ‘no’ from just about every record label around (more than once from some), but all my life I’ve never let outside factors stand in the way of my aspirations—instead the rejection fueled me to dig my heels in more, get a little scrappier and work even harder,” said Tim Montana “The fact that I’m now about to put out an album as a signed artist kind of blows my mind in the best way—I’m lucky enough to be six feet up instead of six feet under and I celebrate that every day.”

An off-the-grid thrill-seeker and hell raiser, Montana has more than a few stories to tell. To bring those tales to life, he teamed up with award-winning producer, Michael Knox (Jason Aldean, Kelly Clarkson, Thomas Rhett) build upon his sound which draws influence from the rural lifestyle with a hint of adrenaline. The music is Country—but don’t mistake it for southern. With geography impacting Tim’s musical influences, he’s located somewhere between Seattle and its grunge, Texas’ roadhouse, Nashville’s Country, Wyoming’s Chris LeDoux, and the Heartland’s rock.

Across the album Montana embraces the rough-and-tumble and folks who aren’t afraid to do the dirty work. “Get Em Up,” available today is an anthem for the blue collar that celebrates the camaraderie amongst their fellowmen. The high-energy track takes off with heavy Western influences, as if you can hear the spurs jangling as a boot stomps, before a chorus of electric guitars and loud drums kick in.

Armed with an unmatched magnetism, Montana has an uncanny relatability that has made him fast friends from people from all walks of life including rock legends, tribesman, rappers, CEOs, NFL players, ranchers, fellow country artists (including Travis Tritt who just released a song written by Tim) and everybody in between. It’s with this genuine charisma that Montana tackles each song, whether high octane (like his Evel Knievel-inspired “Do It Fast”) or sweet and nostalgic, leaning into his seasoned past to deliver authentic vocal performances highlighted by his gritty tones.

Chiefly considered an artist, Montana is a true Renaissance man, moonlighting as a TV personality, marksman, father, husband, foodie, hell-raiser, businessman and—he’ll soon add film actor to his resume (he recently wrapped filming for The Last Son alongside Heather Graham, Machine Gun Kelley, Thomas Jane and Sam Worthington). In addition to starring in his own show, “Tim Montana’s Wild Side” on Velocity Outdoor Channel, Tim is involved in Ravin, CenterPoint, Crosman, Benjamin, Polaris, Black Rifle Coffee, Fender, Gerber, Bicycles, Indian Motorcycles, Kicker Performance Audio, Orange Amplifiers, Snap On and Traeger Grills, in addition to his own companies Whisker Bomb Original Foods (with ZZ Top’s Billy Gibbons), Tim Montana’s Vigilante Cigars (with Big Sky Cigars) and Ol’ Boy Apparel.

Tracklist:
1. Do It Fast (03:18)
2. Get Em Up (03:05)
3. Bar Band (03:25)
4. River Kids (03:30)
5. Doing Everything Right (03:04)
6. Don't Wait Up On Me (03:34)
7. Gone Looks Better (02:47)
8. Stronger Than You (03:08)
9. Long Shots (03:28)
10. Cars On Blocks (03:09)
11. Be A Cowboy (03:20)
12. To An End (03:48)

foobar2000 1.4.1 / Dynamic Range Meter 1.1.1
log date: 2021-04-09 12:13:47

––––––––––––––––––––––––––––––––––––––––
Analyzed: Tim Montana / Long Shots
––––––––––––––––––––––––––––––––––––––––

DR Peak RMS Duration Track
––––––––––––––––––––––––––––––––––––––––
DR5 -1.07 dB -7.54 dB 3:18 01-Do It Fast
DR5 -1.07 dB -7.34 dB 3:05 02-Get Em Up
DR5 -1.04 dB -7.30 dB 3:25 03-Bar Band
DR5 -1.00 dB -7.66 dB 3:31 04-River Kids
DR5 -1.05 dB -7.39 dB 3:04 05-Doing Everything Right
DR6 -1.04 dB -8.59 dB 3:34 06-Don't Wait Up On Me
DR6 -1.02 dB -9.00 dB 2:47 07-Gone Looks Better
DR6 -1.04 dB -8.46 dB 3:08 08-Stronger Than You
DR5 -1.06 dB -7.81 dB 3:28 09-Long Shots
DR6 -1.08 dB -8.48 dB 3:09 10-Cars On Blocks
DR5 -1.07 dB -7.51 dB 3:20 11-Be A Cowboy
DR7 -1.08 dB -10.72 dB 3:48 12-To An End
––––––––––––––––––––––––––––––––––––––––

Number of tracks: 12
Official DR value: DR6

Samplerate: 44100 Hz
Channels: 2
Bits per sample: 24
Bitrate: 1522 kbps
Codec: FLAC
================================================================================


Thanks to the Original customer!