Trio Casals - Moto celeste (2020) [Official Digital Download 24/88]

Posted By: delpotro
Trio Casals - Moto celeste (2020) [Official Digital Download 24/88]

Trio Casals - Moto celeste (2020)
FLAC (tracks) 24-bit/88,2 kHz | Front Cover | Time - 66:14 minutes | 1,02 GB
Classical | Label: Navona Records, Official Digital Download

In MOTO CELESTE, the fifth installment in Navona Records’ MOTO series, the internationally-acclaimed Trio Casals takes on eight new works by eight preeminent composers. It is an electrifying collection, full of drama and adventure. The compositions borrow from an eclectic array of musical traditions, including rhumba and flamenco music. MOTO CELESTE is forged into a cohesive work by the trio’s sensitive and highly-organic performances.

Earth Rise by composer Diane Jones kicks off the recording. This piece is inspired by the cosmic dance between the sun, moon, and Earth, and features lively dances and ethereal strains. Next comes Edna Longoria’s Los Ritmos Para Tres, which translates to “rhythms for three.” It is a mischievous and thrilling piece, rife with shadow and mystery. Ovidiu Marinescu, Trio Casals’ cellist, composed I’m All Ears, which is inspired in part by the musical gestures of a flamenco guitar and features a muscular performance by Marinescu. Next comes Christina Rusnak’s Glacier Blue, in which the trio reflects on the fundamental physical elements of “Mountain,” “Sky,” and “Water” over the course of three movements. Darkbloom by Chad Robinson follows, exploring the full range of the cello with boisterous interjections and tentative replies. After that comes Clive Muncaster’s Palette No. 2, a grand, sweeping piece seasoned with cross rhythms and even rhumba-inspired passages. The penultimate track is Joanna Estelle’s Faraway Star, which includes songful themes that passionately recount the story of two (literally) star-crossed lovers. Finally, Eliane Aberdam’s Grisailles Vaporeuses or “misty grayness” is a three-movement work inspired by nature in New England, with all its joy and drama. The piece ends without a firm musical resolution, leaving the listener already longing for the next album in the MOTO series.

Classical music aficionados and casual listeners alike will find themselves drawn in by the Trio Casal’s powerhouse performances in MOTO CELESTE. With precision and grace, these three artists, fueled by the collective genius of eight individual composers, offer a musical experience to be relived again and again.

Tracklist:
1. Trio Casals – Earth Rise (09:54)
2. Trio Casals – Los ritmos para tres (05:54)
3. Ovidiu Marinescu – Sunt Numai Urechi (07:17)
4. Ovidiu Marinescu – Glacier Blue: I. Mountain (04:06)
5. Ovidiu Marinescu – Glacier Blue: II. Sky (05:28)
6. Ovidiu Marinescu – Glacier Blue: III. Water (04:35)
7. Ovidiu Marinescu – Darkbloom (09:07)
8. Trio Casals – Palette No. 2 (07:42)
9. Trio Casals – Faraway Star (03:23)
10. Trio Casals – Grisailles vaporeuses: I. Pensive (03:43)
11. Trio Casals – Grisailles vaporeuses: II. Lyrical (02:44)
12. Trio Casals – Grisailles vaporeuses: III. Joyful (02:16)

foobar2000 1.4.1 / Dynamic Range Meter 1.1.1
log date: 2021-01-13 20:59:01

––––––––––––––––––––––––––––––––––––––––
Analyzed: Ovidiu Marinescu / Moto celeste (1-5)
Trio Casals / Moto celeste (6-12)
––––––––––––––––––––––––––––––––––––––––

DR Peak RMS Duration Track
––––––––––––––––––––––––––––––––––––––––
DR14 -0.92 dB -19.99 dB 7:17 03-Sunt Numai Urechi
DR11 -3.56 dB -20.63 dB 4:07 04-I. Mountain
DR13 -2.49 dB -22.12 dB 5:28 05-II. Sky
DR12 -5.03 dB -22.69 dB 4:36 06-III. Water
DR14 -0.59 dB -21.36 dB 9:08 07-Darkbloom
DR14 -3.54 dB -23.40 dB 9:54 01-Earth Rise
DR13 -1.67 dB -19.41 dB 5:54 02-Los ritmos para tres
DR12 -1.58 dB -16.91 dB 7:42 08-Palette No. 2
DR11 -3.13 dB -20.70 dB 3:24 09-Faraway Star
DR12 -3.55 dB -21.29 dB 3:44 10-I. Pensive
DR12 -6.59 dB -23.87 dB 2:44 11-II. Lyrical
DR14 -1.00 dB -19.33 dB 2:17 12-III. Joyful
––––––––––––––––––––––––––––––––––––––––

Number of tracks: 12
Official DR value: DR13

Samplerate: 88200 Hz
Channels: 2
Bits per sample: 24
Bitrate: 2246 kbps
Codec: FLAC
================================================================================


Thanks to the Original customer!