Tags
Language
Tags

Tune-Yards - sketchy. (2021) [Official Digital Download]

Posted By: delpotro
Tune-Yards - sketchy. (2021) [Official Digital Download]

Tune-Yards - sketchy. (2021)
FLAC (tracks) 24-bit/44,1 kHz | Front Cover | Time - 37:05 minutes | 430 MB
Indie Pop, Art Pop | Label: 4AD, Official Digital Download

Tune-Yards – the celebrated Oakland-based duo of Merrill Garbus & Nate Brenner – release sketchy. , their fifth album and their first album in 3 years. Teased last fall with single ‘nowhere, man’, the album is being announced with the lead track ‘hold yourself ’; a moment of self-realization - “We all have trouble being brave enough to turn the page”.

Tracklist:
1. nowhere, man (03:29)
2. make it right. (02:56)
3. hypnotized (04:30)
4. homewrecker (03:17)
5. silence pt. 1 (when we say “we”) (03:25)
6. silence pt. 2 (who is “we”?) (01:00)
7. hold yourself. (04:50)
8. sometime (02:53)
9. under your lip (02:49)
10. my neighbor (03:26)
11. be not afraid. (04:26)

foobar2000 1.4.1 / Dynamic Range Meter 1.1.1
log date: 2021-03-27 09:17:01

––––––––––––––––––––––––––––––––––––––––
Analyzed: Tune-Yards / sketchy.
––––––––––––––––––––––––––––––––––––––––

DR Peak RMS Duration Track
––––––––––––––––––––––––––––––––––––––––
DR6 0.00 dB -7.34 dB 3:29 01-nowhere, man
DR7 0.00 dB -9.38 dB 2:57 02-make it right.
DR6 0.00 dB -8.29 dB 4:30 03-hypnotized
DR7 0.00 dB -8.84 dB 3:17 04-homewrecker
DR6 0.00 dB -8.54 dB 3:25 05-silence pt. 1 (when we say “we”)
DR25 -5.47 dB -38.07 dB 1:01 06-silence pt. 2 (who is “we”?)
DR6 0.00 dB -8.85 dB 4:51 07-hold yourself.
DR8 0.00 dB -8.74 dB 2:53 08-sometime
DR7 0.00 dB -8.37 dB 2:49 09-under your lip
DR8 0.00 dB -9.38 dB 3:27 10-my neighbor
DR6 0.00 dB -8.74 dB 4:27 11-be not afraid.
––––––––––––––––––––––––––––––––––––––––

Number of tracks: 11
Official DR value: DR8

Samplerate: 44100 Hz
Channels: 2
Bits per sample: 24
Bitrate: 1569 kbps
Codec: FLAC
================================================================================


Thanks to the Original customer!