Tags
Language
Tags
July 2024
Su Mo Tu We Th Fr Sa
30 1 2 3 4 5 6
7 8 9 10 11 12 13
14 15 16 17 18 19 20
21 22 23 24 25 26 27
28 29 30 31 1 2 3

Two Steps From Hell - Greatest Hits: Remastered (2020) [Official Digital Download 24/48]

Posted By: delpotro
Two Steps From Hell - Greatest Hits: Remastered (2020) [Official Digital Download 24/48]

Two Steps From Hell - Greatest Hits: Remastered (2020)
FLAC (tracks) 24-bit/48 kHz | Front Cover | Time - 136:04 minutes | 1,64 GB
Modern Classical, Trailer Music | Label: Extreme Music, Official Digital Download

Greatest Hits Remastered, released March 12, 2020, was the twenty-seventh industry album released by Two Steps from Hell and the forty-first overall. As evident from the name, it featured 24 tracks from previous albums remastered to sound fresher and bolder.

Extreme Music Description:
BEHOLD… THE INVINCIBLE TITANS OF TRAILER MUSIC'S MOST MASSIVE MOMENTS DIGITALLY RE-POLISHED LIKE A NEW SUIT OF ARMOR.

Tracklist:
Disc 1
01. Heart of Courage
02. Protectors of the Earth
03. Stormkeeper
04. Invincible
05. Wolf King
06. Victory
07. None Shall Live
08. Fall of the Fountain World
09. Black Blade
10. El Dorado
11. Master of Shadows
12. For the Win
13. Nero
14. Fill My Heart
15. Molto Piratissimo
16. Strength of a Thousand Men
17. Neverdark
18. Moving Mountains
19. Fire Nation
20. Sariel
21. To Glory
22. Final Days of Rome
23. Am I Not Human
24. Skyworld

Disc 2
00. Am I Not Human (No Choir)
00. Am I Not Human (No Choir, Light)
01. Heart of Courage (No Choir)
02. Protectors of the Earth (No Choir)
03. Stormkeeper (No Choir)
04. Invincible (No Choir)
05. Wolf King (No Choir)
06. Victory (No Choir)
07. Fall of the Fountain World (No Choir)
08. Black Blade (No Choir)
09. Master of Shadows (No Choir)
10. Fill My Heart (No Choir)
11. Molto Piratissimo (No Choir)
12. Strength of a Thousand Men (No Choir)
13. Neverdark (No Choir)
14. Moving Mountains (No Choir)
15. Fire Nation (No Choir)
16. Final Days of Rome (No Choir)
17. Sariel (No Choir)

foobar2000 1.4.1 / Dynamic Range Meter 1.1.1
log date: 2023-05-20 12:45:38

––––––––––––––––––––––––––––––––––––––––
Analyzed: Two Steps From Hell / Greatest Hits: Remastered
––––––––––––––––––––––––––––––––––––––––

DR Peak RMS Duration Track
––––––––––––––––––––––––––––––––––––––––
DR5 -0.32 dB -9.77 dB 1:57 01-Heart of Courage
DR7 -0.32 dB -9.35 dB 2:50 02-Protectors of the Earth
DR4 -0.09 dB -6.20 dB 2:54 03-Stormkeeper
DR6 -0.32 dB -7.68 dB 2:52 04-Invincible
DR6 -0.30 dB -8.43 dB 4:13 05-Wolf King
DR5 -0.32 dB -6.95 dB 5:20 06-Victory
DR5 -0.31 dB -6.81 dB 2:17 07-None Shall Live
DR6 -0.32 dB -8.94 dB 4:39 08-Fall of the Fountain World
DR5 -0.32 dB -7.04 dB 3:06 09-Black Blade
DR6 -0.31 dB -8.26 dB 4:14 10-El Dorado
DR5 -0.18 dB -6.58 dB 3:05 11-Master of Shadows
DR6 -0.32 dB -8.25 dB 2:11 12-For the Win
DR5 -0.32 dB -10.30 dB 3:27 13-Nero
DR6 -0.32 dB -6.98 dB 2:21 14-Fill My Heart
DR6 -0.32 dB -9.24 dB 3:04 15-Molto Piratissimo
DR6 -0.32 dB -7.36 dB 2:15 16-Strength of a Thousand Men
DR5 -0.32 dB -7.09 dB 3:07 17-Neverdark
DR5 -0.06 dB -8.68 dB 3:02 18-Moving Mountains
DR5 -0.30 dB -7.16 dB 2:58 19-Fire Nation
DR5 -0.32 dB -6.05 dB 2:47 20-Sariel
DR7 -0.32 dB -9.67 dB 4:36 21-To Glory
DR5 -0.32 dB -7.69 dB 3:15 22-Final Days of Rome
DR7 -0.32 dB -8.52 dB 2:59 23-Am I Not Human
DR5 -0.32 dB -8.34 dB 3:11 24-Skyworld
––––––––––––––––––––––––––––––––––––––––

Number of tracks: 24
Official DR value: DR6

Samplerate: 48000 Hz
Channels: 2
Bits per sample: 24
Bitrate: 1719 kbps
Codec: FLAC
================================================================================

foobar2000 1.4.1 / Dynamic Range Meter 1.1.1
log date: 2023-05-20 12:38:17

––––––––––––––––––––––––––––––––––––––––
Analyzed: Two Steps From Hell / Greatest Hits Remastered
––––––––––––––––––––––––––––––––––––––––

DR Peak RMS Duration Track
––––––––––––––––––––––––––––––––––––––––
DR6 0.00 dB -10.30 dB 1:57 01-Heart of Courage (No Choir)
DR7 0.00 dB -9.63 dB 2:50 02-Protectors of the Earth (No Choir)
DR7 -0.02 dB -8.37 dB 2:55 03-Stormkeeper (No Choir)
DR6 0.00 dB -7.60 dB 2:51 04-Invincible (No Choir)
DR7 0.00 dB -8.98 dB 4:13 05-Wolf King (No Choir)
DR5 0.00 dB -6.99 dB 5:20 06-Victory (No Choir)
DR8 0.00 dB -9.58 dB 4:39 07-Fall of the Fountain World (No Choir)
DR6 0.00 dB -7.23 dB 3:05 08-Black Blade (No Choir)
DR6 0.00 dB -7.21 dB 3:05 09-Master of Shadows (No Choir)
DR6 0.00 dB -7.13 dB 2:21 10-Fill My Heart (No Choir)
DR6 0.00 dB -8.25 dB 3:04 11-Molto Piratissimo (No Choir)
DR6 -0.01 dB -7.63 dB 2:16 12-Strength of a Thousand Men (No Choir)
DR6 0.00 dB -7.40 dB 3:08 13-Neverdark (No Choir)
DR6 0.00 dB -9.47 dB 3:02 14-Moving Mountains (No Choir)
DR6 0.00 dB -7.25 dB 2:58 15-Fire Nation (No Choir)
DR6 0.00 dB -8.37 dB 3:14 16-Final Days of Rome (No Choir)
DR5 0.00 dB -6.48 dB 2:47 17-Sariel (No Choir)
DR6 0.00 dB -8.15 dB 2:54 18.1-Am I Not Human (No Choir)
DR8 0.00 dB -10.64 dB 2:47 18.2-Am I Not Human (No Choir, Light)
––––––––––––––––––––––––––––––––––––––––

Number of tracks: 19
Official DR value: DR6

Samplerate: 48000 Hz
Channels: 2
Bits per sample: 24
Bitrate: 1535 kbps
Codec: FLAC
================================================================================


Thanks to the Original customer!