Tags
Language
Tags

Yello - Baby (Vinyl) (1991/2021) [24bit/88kHz]

Posted By: delpotro
Yello - Baby (Vinyl) (1991/2021) [24bit/88kHz]

Yello - Baby (Vinyl) (1991/2021)
Vinyl Rip | FLAC (tracks) 24-bit/88,2 kHz | Time - 39:32 minutes | 777 MB | Artwork - 5 MB
Electronic, New Wave, Synthpop | Label: Universal Music

To mark this year's 40th anniversary of YELLO, a series of highly sought after classics will be re-released on vinyl on July 9th, including the cult albums ‘Baby’ (single LP), ‘Zebra’ (single LP), ‘Pocket Universe’ (double LP), ‘Motion Picture’ (double LP) and ‘The Eye’ (double LP).

“Baby”, the seventh YELLO album, released in 1991, contains the classics “Rubberbandman” and “Jungle Bill” as well as the fan favourites “Capri Calling” and “Drive / Driven” and marks the musical bridge between the 80s and 90s for the dynamic duo Blank / Meier.

Tracklist:
A1 – Homage To The Mountain
A2 – Rubberbandman
A3 – Jungle Bill
A4 – Ocean Club
A5 – Who's Gone?
A6 – Capri Calling
B1 – Drive / Driven
B2 – On The Run
B3 – Blender
B4 – Sweet Thunder

foobar2000 1.4.1 / Dynamic Range Meter 1.1.1
log date: 2021-07-25 15:28:26

––––––––––––––––––––––––––––––––––––––––
Analyzed: ? / ?
––––––––––––––––––––––––––––––––––––––––

DR Peak RMS Duration Track
––––––––––––––––––––––––––––––––––––––––
DR13 -2.95 dB -21.32 dB 0:35 ?-01 - Homage To The Mountain
DR15 -0.59 dB -18.30 dB 3:37 ?-02 - Rubberbandman
DR15 -0.35 dB -17.97 dB 6:13 ?-03 - Jungle Bill
DR16 -1.61 dB -19.56 dB 3:29 ?-04 - Ocean Club
DR15 -0.48 dB -17.75 dB 3:43 ?-05 - Who's Gone
DR13 -1.19 dB -16.71 dB 2:59 ?-06 - Capri Calling
DR15 -0.50 dB -17.82 dB 4:16 ?-07 - Drive Driven
DR15 -0.35 dB -18.14 dB 4:40 ?-08 - On The Run
DR13 -0.39 dB -16.42 dB 4:40 ?-09 - Blender
DR12 -1.61 dB -19.15 dB 5:21 ?-10 - Sweet Thunder
––––––––––––––––––––––––––––––––––––––––

Number of tracks: 10
Official DR value: DR14

Samplerate: 88200 Hz
Channels: 2
Bits per sample: 24
Bitrate: 2537 kbps
Codec: FLAC
================================================================================


Thanks to the Original customer!