Tags
Language
Tags

Yello - Motion Picture (Vinyl) (1999/2021) [24bit/96kHz]

Posted By: delpotro
Yello - Motion Picture (Vinyl) (1999/2021) [24bit/96kHz]

Yello - Motion Picture (Vinyl) (1999/2021)
Vinyl Rip | FLAC (tracks) 24-bit/96 kHz | Front Cover | Time - 53:11 minutes | 1,06 GB
Electronic, New Wave, Synthpop | Label: Universal Music

To mark the 40th anniversary of Yello this year, a series of highly sought after classics will be re-released on vinyl, including the cult albums "Baby", "Zebra", "Pocket Universe", "Motion Picture" and "The Eye".

Not just interesting for collectors, but also a chance for Yello fans who would like to own the rare albums "Baby" (1LP), "Zebra" (1LP) and "Pocket Universe" (2LP) on vinyl. As a special surprise, the two albums "Motion Picture" (2LP) and "The Eye" (2LP) will appear on vinyl for the first time. All pressed on 180g vinyl, with original artwork.

"Motion Picture", the tenth YELLO album, released in 1999, contains fan favourites such as "Liquid Lies", "Squeeze Please" and "Croissant Bleu". In 2021 the album will now finally be released on vinyl for the very first time, as a 180g double LP in the original artwork with an additional four-page booklet including liner notes, rare photos and limited to a one-time reissue edition.

Tracklist:
A1 – Get On (04:27)
A2 – Houdini (04:15)
A3 – Prisoner Of His Mind (04:06)
B1 – Distant Mirror (05:17)
B2 – Time Freeze (05:05)
B3 – Croissant Bleu (03:24)
C1 – Liquid Lies (03:15)
C2 – Squeeze Please (03:14)
C3 – Shake And Shiver (04:50)
D1 – Bubbling Under (05:13)
D2 – Point Blank (06:13)
D3 – Cyclops (04:27)

foobar2000 1.6.6 / Dynamic Range Meter 1.1.1
log date: 2021-07-10 11:46:10

––––––––––––––––––––––––––––––––––––––––
Analyzed: Yello / Motion Picture
––––––––––––––––––––––––––––––––––––––––

DR Peak RMS Duration Track
––––––––––––––––––––––––––––––––––––––––
DR12 -0.41 dB -14.86 dB 4:25 01-Get On
DR12 0.00 dB -15.48 dB 4:11 02-Houdini
DR11 -0.54 dB -14.41 dB 4:06 03-Prisoner Of His Mind
DR11 -1.34 dB -15.23 dB 5:14 04-Distant Mirror
DR12 -0.23 dB -14.93 dB 5:04 05-Time Freeze
DR10 -0.48 dB -13.00 dB 3:22 06-Croissant Bleu
DR12 -1.22 dB -14.56 dB 3:17 07-Liquid Lies
DR12 -1.34 dB -15.67 dB 3:13 08-Squeeze Please
DR11 -0.42 dB -14.64 dB 4:28 09-Shake And Shiver
DR10 -0.09 dB -12.72 dB 5:11 10-Bubbling Under
DR12 -0.01 dB -14.40 dB 6:13 11-Point Blank
DR12 -1.41 dB -16.62 dB 4:28 12-Cyclops
––––––––––––––––––––––––––––––––––––––––

Number of tracks: 12
Official DR value: DR11

Samplerate: 96000 Hz
Channels: 2
Bits per sample: 24
Bitrate: 2676 kbps
Codec: FLAC
================================================================================


Hardware:
Turntable Rega Planar 6 with Exakt 2
Preamp Pro-Ject Phono Box DS2 USB

Software:
VinylStudio V11.0.7

Thanks to the Original customer!