Tags
Language
Tags

Yello - The Eye (Vinyl) (2003/2021) [24bit/96kHz]

Posted By: delpotro
Yello - The Eye (Vinyl) (2003/2021) [24bit/96kHz]

Yello - The Eye (Vinyl) (2003/2021)
Vinyl Rip | FLAC (tracks) 24-bit/96 kHz | Front Cover | Time - 60:16 minutes | 1,16 GB
Electronic, Pop, New Wave | Label: Universal Music

To mark the 40th anniversary of Yello this year, a series of highly sought after classics will be re-released on vinyl, including the cult albums "Baby", "Zebra", "Pocket Universe", "Motion Picture" and "The Eye".

Not just interesting for collectors, but also a chance for Yello fans who would like to own the rare albums "Baby" (1LP), "Zebra" (1LP) and "Pocket Universe" (2LP) on vinyl. As a special surprise, the two albums "Motion Picture" (2LP) and "The Eye" (2LP) will appear on vinyl for the first time. All pressed on 180g vinyl, with original artwork.

"The Eye", the eleventh YELLO album, released in 2003, contains fan favourites such as "Planet Dada", "Tiger Dust" and "Indigo Bay". In 2021 the album will now finally be released on vinyl for the very first time, as a 180g double LP in the original artwork.

Tracklist:
A1 – Planet Dada (03:08)
A2 – Nervous (02:53)
A3 – Don Turbulento (04:51)
a4 – Soul On Ice (03:12)
A5 – Junior B (04:05)
B1 – Tiger Dust (05:01)
B2 – Distant Solution (04:43)
B3 – Hipster's Delay (04:38)
B4 – Time Palace (04:19)
C1 – Indigo Bay (05:50)
C2 – Unreal (04:02)
C3 – Bougainville (03:54)
D1 – Star Breath (05:18)
D2 – Planet Dada (Flamboyant) (04:40)

foobar2000 1.6.6 / Dynamic Range Meter 1.1.1
log date: 2021-07-10 18:08:49

––––––––––––––––––––––––––––––––––––––––
Analyzed: Yello / The Eye
––––––––––––––––––––––––––––––––––––––––

DR Peak RMS Duration Track
––––––––––––––––––––––––––––––––––––––––
DR10 -1.76 dB -14.32 dB 3:06 01-Planet Dada
DR10 -0.60 dB -13.46 dB 2:53 02-Nervous
DR10 -1.53 dB -13.69 dB 4:48 03-Don Turbulento
DR10 -1.09 dB -12.43 dB 3:11 04-Soul On Ice
DR10 -1.21 dB -13.73 dB 4:02 05-Junior B
DR10 -1.50 dB -14.64 dB 5:01 06-Tiger Dust
DR10 -1.04 dB -13.98 dB 4:38 07-Distant Solution
DR10 -1.63 dB -14.39 dB 4:38 08-Hipster's Delay
DR10 -1.71 dB -13.27 dB 4:17 09-Time Palace
DR12 0.00 dB -14.47 dB 5:50 10-Indigo Bay
DR11 -1.40 dB -14.37 dB 3:59 11-Unreal
DR10 -1.73 dB -13.28 dB 4:00 12-Bougainville
DR11 -1.86 dB -16.12 dB 5:14 13-Star Breath
DR10 -0.30 dB -13.65 dB 4:41 14-Planet Dada (Flamboyant)
––––––––––––––––––––––––––––––––––––––––

Number of tracks: 14
Official DR value: DR10

Samplerate: 96000 Hz
Channels: 2
Bits per sample: 24
Bitrate: 2586 kbps
Codec: FLAC
================================================================================


Hardware:
Turntable Rega Planar 6 with Exakt 2
Preamp Pro-Ject Phono Box DS2 USB

Software:
VinylStudio V11.0.7

Thanks to the Original customer!