65daysofstatic - Under the Summs (EP) (2021) [Official Digital Download]

Posted By: delpotro
65daysofstatic - Under the Summs (EP) (2021) [Official Digital Download]

65daysofstatic - Under the Summs (EP) (2021)
FLAC (tracks) 24-bit/44,1 kHz | Front Cover | Time - 19:11 minutes | 208 MB
Electronic, Post-Rock | Label: 65daysofstatic, Official Digital Download

The first e.p from 65daysofstatic’s Wreckage Systems project is out now. Written and recorded across various states of lockdown, Under the Summs is the distressed sounds of noise smuggled across borders via ftp servers. It is amplified distance, urgency coaxed from life on pause. The future without future. Under the Summs is the beginning of a new arc of music from 65days. If the Wreckage Systems stream is the infinite, endless soundtrack to now (and it is), then these accompanying releases that we cut out of it are the disjunctions. The breaks in the transmission. Anchors, too heavy to be dragged away into the fog of digital ephemerality.

Tracklist:
1. Under the Summs (04:48)
2. Move Quickly (04:34)
3. NiteTimeUses (05:04)
4. Dawn of the Red (04:44)

foobar2000 1.4.1 / Dynamic Range Meter 1.1.1
log date: 2021-04-07 16:58:42

––––––––––––––––––––––––––––––––––––––––
Analyzed: 65daysofstatic / Under the Summs
––––––––––––––––––––––––––––––––––––––––

DR Peak RMS Duration Track
––––––––––––––––––––––––––––––––––––––––
DR6 0.00 dB -7.70 dB 4:48 01-Under the Summs
DR5 0.00 dB -5.88 dB 4:34 02-Move Quickly
DR7 -0.14 dB -8.99 dB 5:04 03-NiteTimeUses
DR5 0.00 dB -6.24 dB 4:44 04-Dawn of the Red
––––––––––––––––––––––––––––––––––––––––

Number of tracks: 4
Official DR value: DR6

Samplerate: 44100 Hz
Channels: 2
Bits per sample: 24
Bitrate: 1548 kbps
Codec: FLAC
================================================================================


Thanks to the Original customer!