'68 - Give One Take One (2021) [Official Digital Download]

Posted By: shamanicus
'68 - Give One Take One (2021) [Official Digital Download]

'68 - Give One Take One (2021)
FLAC (tracks) 24-bit/44.1 kHz | 40:21 | 483 mb
Studio Master, Official Digital Download | Artwork: front cover

The third album from the Atlanta-based rock duo, produced by the Grammy-winning Nick Raskulinecz (Foo Fighters, Rush, Alice In Chains). Alternative Press said it best: “‘68 have both confounded and enraptured generations of hardcore types, alt-rock snobs and passionate fans on the fringes of both camps. Today, the duo are coming after your complacency. Turn it up, because resistance is futile”. They’ve shared the stage with bands such as Bring Me The Horizon, Stone Sour, Beartooth, Avatar, August Burns Red, The Amity Affliction, and Underoath, where they’ve earned new converts every day.


Tracklist:

01. The Knife, The Knife, The Knife
02. Bad Bite
03. Nickels and Diamonds
04. What You Feed
05. What You Starve
06. The Silence, The Silence, The Silence
07. Life and Debt
08. Lovers in Death
09. Nervous Passenger
10. The Storm, The Storm, The Storm


foobar2000 1.4 / Dynamic Range Meter 1.1.1
log date: 2021-03-26 22:49:01

––––––––––––––––––––––––––––––––––––––––
Analyzed: '68 / Give One Take One
––––––––––––––––––––––––––––––––––––––––

DR Peak RMS Duration Track
––––––––––––––––––––––––––––––––––––––––
DR7 -0.23 dB -10.17 dB 4:05 01-The Knife, The Knife, The Knife
DR5 0.00 dB -7.62 dB 3:10 02-Bad Bite
DR5 -0.23 dB -6.94 dB 3:30 03-Nickels and Diamonds
DR5 -0.35 dB -7.10 dB 4:07 04-What You Feed
DR5 0.00 dB -6.42 dB 3:11 05-What You Starve
DR6 -0.48 dB -8.45 dB 1:40 06-The Silence, The Silence, The Silence
DR5 -0.18 dB -8.59 dB 5:44 07-Life and Debt
DR5 -0.30 dB -7.70 dB 3:50 08-Lovers in Death
DR6 -0.46 dB -8.10 dB 4:18 09-Nervous Passenger
DR5 -0.04 dB -8.50 dB 6:46 10-The Storm, The Storm, The Storm
––––––––––––––––––––––––––––––––––––––––

Number of tracks: 10
Official DR value: DR5

Samplerate: 44100 Hz
Channels: 2
Bits per sample: 24
Bitrate: 1593 kbps
Codec: FLAC
================================================================================




Thanks to the Original customer.