Alex Baranowski - The Windermere Children (Original Film Soundtrack) (2020) [Official Digital Download]

Posted By: Pisulik
Alex Baranowski - The Windermere Children (Original Film Soundtrack) (2020) [Official Digital Download]

Alex Baranowski - The Windermere Children (Original Film Soundtrack) (2020)
FLAC (tracks) 24-bit/48 kHz | Time - 33:29 minutes | 358 MB
Studio Master, Official Digital Download | Artwork: Front cover

“The Windermere Children” soundtrack released on Sony Classics by Alex Baranowski 15TH JANUARY 2020 Very excited to announce that my score for The Windermere Children is being released by the incredible Sony Classics label next week (24th January). The film will be broadcast on simultaneously on BBC Two in the UK and ZDF in Germany on Monday 27th at 9pm (UK time). It is a Wall to Wall / Warner Bros production.

To say I’m proud of this project is a huge understatement… by far one of the most emotional journeys I’ve ever been on. Telling the true story of three hundred Polish orphans brought to the Lake District in 1945 after surviving the horrors of the Nazi concentration camps.

The story resonated very strongly with the experiences of my own Polish Grandparents after the war. I used my Grandfathers instruments on the score (one of which was an accordion he purchased in Italy in 1943 after being liberated from forced labour camps in Siberia). My Grandmothers oil paintings were also a huge inspiration; I hung some of her most harrowing early paintings in my studio as I wrote.

The album features the wonderful London Metropolitan Orchestra conducted by Andy Brown recorded at Air Studios by Fiona Cruickshank. Soloists include David Juritz (solo violin), Bob Smissesn (solo viola) and Dave Daniels (solo cello). The score also features the song Rozhinkes mit Mandlen which is sung in Yiddish by Polina Shepherd.

Tracklist:

01. A New Beginning (3:10)
02. Salek's Theme (1:05)
03. Inseparable (2:23)
04. Escape to the Woods (1:17)
05. Stolen Bikes (1:00)
06. A Family Lost (0:52)
07. Bad Dreams (2:27)
08. Painting Pictures (1:14)
09. Haunted By the Past (1:44)
10. Letters from the Red Cross (2:23)
11. Prayer for the Dead (1:17)
12. Thoughts of Home (1:12)
13. Sala Paints (1:11)
14. Rozhinkes mit Mandlen (2:03)
15. Arriving for the Game (1:04)
16. England Is Very Green (1:11)
17. A Brother Returns (1:27)
18. The Windermere Children (5:04)
19. A Life Lived (1:27)

foobar2000 1.3.7 / Dynamic Range Meter 1.1.1
log date: 2020-01-28 02:45:47

––––––––––––––––––––––––––––––––––––––––
Analyzed: Alex Baranowski / The Windermere Children (Original Film Soundtrack)
––––––––––––––––––––––––––––––––––––––––

DR Peak RMS Duration Track
––––––––––––––––––––––––––––––––––––––––
DR12 -1.21 dB -17.85 dB 3:10 01-A New Beginning
DR9 -2.84 dB -18.11 dB 1:05 02-Salek's Theme
DR11 -2.43 dB -18.26 dB 2:23 03-Inseparable
DR10 -1.34 dB -17.23 dB 1:17 04-Escape to the Woods
DR10 -1.09 dB -14.51 dB 1:00 05-Stolen Bikes
DR7 -1.50 dB -15.38 dB 0:52 06-A Family Lost
DR10 -1.76 dB -15.49 dB 2:27 07-Bad Dreams
DR10 -1.41 dB -16.58 dB 1:14 08-Painting Pictures
DR10 -0.89 dB -15.53 dB 1:44 09-Haunted By the Past
DR11 -1.11 dB -17.44 dB 2:23 10-Letters from the Red Cross
DR10 -0.80 dB -14.45 dB 1:17 11-Prayer for the Dead
DR11 -0.91 dB -18.48 dB 1:12 12-Thoughts of Home
DR9 -1.83 dB -19.87 dB 1:11 13-Sala Paints
DR11 -1.21 dB -16.06 dB 2:03 14-Rozhinkes mit Mandlen
DR9 -0.99 dB -14.25 dB 1:04 15-Arriving for the Game
DR9 -1.09 dB -14.62 dB 1:11 16-England Is Very Green
DR10 -0.89 dB -16.60 dB 1:27 17-A Brother Returns
DR11 -0.79 dB -16.51 dB 5:04 18-The Windermere Children
DR10 -2.01 dB -16.49 dB 1:27 19-A Life Lived
––––––––––––––––––––––––––––––––––––––––

Number of tracks: 19
Official DR value: DR10

Samplerate: 48000 Hz
Channels: 2
Bits per sample: 24
Bitrate: 1328 kbps
Codec: FLAC
================================================================================


All thanks go to the original releaser