Tags
Language
Tags

Daniel Pemberton - Slow Horses: Season 1 (2022) [Official Digital Download]

Posted By: ciklon5
Daniel Pemberton - Slow Horses: Season 1 (2022) [Official Digital Download]

Daniel Pemberton - Slow Horses: Season 1 (2022) [Official Digital Download]
FLAC (tracks), Lossless [24bit-48kHz] | 1:07:25 | 619 Mb
Genre: Soundtrack / Label: Polydor Records

Slow Horses is a spy thriller television series based on the 2010 novel of the same name by Mick Herron. The first two episodes of the series premiered on Apple TV+ on April 1, 2022.Daniel Pemberton (born 3 November 1977) is an Academy Award nominated and Emmy winning English composer and songwriter.

Track List:
1.01 - Mick Jagger - Strange Game (From The ATV+ Original Series "Slow Horses”) (3:33)
1.02 - Daniel Pemberton - Sleeping Dogs (From The ATV+ Original Series "Slow Horses") (2:23)
1.03 - Daniel Pemberton - Airport Takedown (From The ATV+ Original Series "Slow Horses") (6:21)
1.04 - Daniel Pemberton - Slough House (Strange Game) (From The ATV+ Original Series "Slow Horses") (3:11)
1.05 - Daniel Pemberton - Bad Tradecraft (From The ATV+ Original Series "Slow Horses") (2:29)
1.06 - Daniel Pemberton - They Are Watching (From The ATV+ Original Series "Slow Horses") (1:18)
1.07 - Daniel Pemberton - The Journalist (From The ATV+ Original Series "Slow Horses") (2:15)
1.08 - Daniel Pemberton - Following Hobden (From The ATV+ Original Series "Slow Horses") (3:08)
1.09 - Daniel Pemberton - Jackson Lamb (From The ATV+ Original Series "Slow Horses") (1:22)
1.10 - Daniel Pemberton - No Escape (From The ATV+ Original Series "Slow Horses") (1:51)
1.11 - Daniel Pemberton - Regroup, Blake's Grave (From The ATV+ Original Series "Slow Horses") (1:37)
1.12 - Daniel Pemberton - Proceed, Roupell Street (From The ATV+ Original Series "Slow Horses") (3:16)
1.13 - Daniel Pemberton - An Englishman's Castle (From The ATV+ Original Series "Slow Horses") (2:33)
1.14 - Daniel Pemberton - Bad Memories (From The ATV+ Original Series "Slow Horses") (2:53)
1.15 - Daniel Pemberton - Taverner (From The ATV+ Original Series "Slow Horses") (1:27)
1.16 - Daniel Pemberton - The Park (From The ATV+ Original Series "Slow Horses") (1:40)
1.17 - Daniel Pemberton - End Of The Day, Slough House (From The ATV+ Original Series "Slow Horses") (3:10)
1.18 - Daniel Pemberton - One More Sweep (From The ATV+ Original Series "Slow Horses") (1:53)
1.19 - Daniel Pemberton - Inbound (From The ATV+ Original Series "Slow Horses") (2:06)
1.20 - Daniel Pemberton - South Of The River (From The ATV+ Original Series "Slow Horses") (1:21)
1.21 - Daniel Pemberton - Floor By Floor (From The ATV+ Original Series "Slow Horses") (3:26)
1.22 - Daniel Pemberton - London Rules (From The ATV+ Original Series "Slow Horses") (3:53)
1.23 - Daniel Pemberton - Gone (From The ATV+ Original Series "Slow Horses") (1:32)
1.24 - Daniel Pemberton - Clear The Shot (From The ATV+ Original Series "Slow Horses") (3:08)
1.25 - Daniel Pemberton - Intruder (From The ATV+ Original Series "Slow Horses") (2:31)
1.26 - Daniel Pemberton - Full Of Surprises (From The ATV+ Original Series "Slow Horses") (1:37)
1.27 - Daniel Pemberton - Slow Horses Return (From The ATV+ Original Series "Slow

foobar2000 1.6.10 / Dynamic Range Meter 1.1.1
log date: 2022-04-28 22:00:58

––––––––––––––––––––––––––––––––––––––––
Analyzed: Daniel Pemberton / Slow Horses: Season 1 (ATV+ Original Series Soundtrack) (1-26)
Mick Jagger / Slow Horses: Season 1 (ATV+ Original Series Soundtrack) (27)
––––––––––––––––––––––––––––––––––––––––

DR Peak RMS Duration Track
––––––––––––––––––––––––––––––––––––––––
DR8 -0.20 dB -12.41 dB 2:23 02-Sleeping Dogs (From The ATV+ Original Series "Slow Horses")
DR5 -0.20 dB -7.80 dB 6:21 03-Airport Takedown (From The ATV+ Original Series "Slow Horses")
DR8 -0.20 dB -9.58 dB 3:11 04-Slough House (Strange Game) (From The ATV+ Original Series "Slow Horses")
DR9 -0.20 dB -15.23 dB 2:29 05-Bad Tradecraft (From The ATV+ Original Series "Slow Horses")
DR9 -1.64 dB -15.52 dB 1:18 06-They Are Watching (From The ATV+ Original Series "Slow Horses")
DR9 -0.20 dB -12.91 dB 2:15 07-The Journalist (From The ATV+ Original Series "Slow Horses")
DR9 -0.20 dB -13.06 dB 3:08 08-Following Hobden (From The ATV+ Original Series "Slow Horses")
DR13 -1.11 dB -19.32 dB 1:22 09-Jackson Lamb (From The ATV+ Original Series "Slow Horses")
DR12 -6.30 dB -25.68 dB 1:51 10-No Escape (From The ATV+ Original Series "Slow Horses")
DR10 -2.45 dB -16.85 dB 1:37 11-Regroup, Blake's Grave (From The ATV+ Original Series "Slow Horses")
DR8 -0.20 dB -9.85 dB 3:16 12-Proceed, Roupell Street (From The ATV+ Original Series "Slow Horses")
DR15 -0.22 dB -20.06 dB 2:33 13-An Englishman's Castle (From The ATV+ Original Series "Slow Horses")
DR9 -1.80 dB -17.24 dB 2:53 14-Bad Memories (From The ATV+ Original Series "Slow Horses")
DR12 -0.42 dB -17.89 dB 1:27 15-Taverner (From The ATV+ Original Series "Slow Horses")
DR13 -1.83 dB -20.61 dB 1:40 16-The Park (From The ATV+ Original Series "Slow Horses")
DR12 -1.11 dB -16.93 dB 3:10 17-End Of The Day, Slough House (From The ATV+ Original Series "Slow Horses")
DR8 -1.36 dB -13.80 dB 1:53 18-One More Sweep (From The ATV+ Original Series "Slow Horses")
DR11 -0.47 dB -18.03 dB 2:06 19-Inbound (From The ATV+ Original Series "Slow Horses")
DR11 -0.31 dB -15.40 dB 1:21 20-South Of The River (From The ATV+ Original Series "Slow Horses")
DR6 -0.20 dB -11.81 dB 3:26 21-Floor By Floor (From The ATV+ Original Series "Slow Horses")
DR13 -0.52 dB -19.21 dB 3:53 22-London Rules (From The ATV+ Original Series "Slow Horses")
DR12 -0.38 dB -17.55 dB 1:32 23-Gone (From The ATV+ Original Series "Slow Horses")
DR10 -0.20 dB -13.75 dB 3:08 24-Clear The Shot (From The ATV+ Original Series "Slow Horses")
DR10 -0.27 dB -15.27 dB 2:31 25-Intruder (From The ATV+ Original Series "Slow Horses")
DR10 -0.33 dB -13.86 dB 1:37 26-Full Of Surprises (From The ATV+ Original Series "Slow Horses")
DR11 -0.30 dB -13.68 dB 1:43 27-Slow Horses Return (From The ATV+ Original Series "Slow Horses")
DR6 -1.49 dB -9.38 dB 3:33 01-Strange Game (From The ATV+ Original Series "Slow Horses”)
––––––––––––––––––––––––––––––––––––––––

Number of tracks: 27
Official DR value: DR10

Samplerate: 48000 Hz
Channels: 2
Bits per sample: 24
Bitrate: 1592 kbps
Codec: FLAC
================================================================================