Tags
Language
Tags

David Roth: Pearl Diver 2004 & More Pearls 2006 [24-bit/44.1 kHz]

Posted By:
David Roth: Pearl Diver 2004 & More Pearls 2006 [24-bit/44.1 kHz]

David Roth: Pearl Diver 2004 & More Pearls 2006
FLAC (Tracks) 24-bit/44.1 kHz | Official Digital Download | Time: 00:57:12+01:05:51
Acoustic Guitar, Folk | Stockfisch Records | ~ 1.35 Gb

A songwriter's songwriter, David combines a keen social sensibility with dazzling musical ability and a strong voice to produce songs that are performed by dozens of other top musicians. He's been recorded by the likes of Christine Lavin, Anne Hills, and Tom Chapin. His appearances have ranged from singing the national anthem in front of a sold out Chicago Bulls/New York Knicks game to intimate house concerts and innumerable workshops to singing for the United Nations, 40th Anniversary celebration.

~ allmusic
David Roth: Pearl Diver 2004 & More Pearls 2006:

David Roth: Pearl Diver 2004 & More Pearls 2006 [24-bit/44.1 kHz]

Pearl Diver 2004:

01 - Before I Die (00:03:18)
02 - Bake Sale (00:04:54)
03 - Rising in Love (00:02:48)
04 - Pearl Diver (00:04:03)
05 - John and Josie (00:06:32)
06 - The Jordan Waltz (00:03:35)
07 - Vincent (00:05:09)
08 - Mother's Day Card (00:05:14)
09 - That Kind of Grace (00:05:36)
10 - St. Blasien Breath (00:01:26)
11 - Flag of Hope (00:06:40)
12 - Some Kind of Hero (00:04:07)
13 - Lullaby (00:03:44)

foobar2000 1.4.2 / Dynamic Range Meter 1.1.1
log date: 2021-08-03 14:28:01

––––––––––––––––––––––––––––––––––––––––
Analyzed: David Roth / Pearl Diver
––––––––––––––––––––––––––––––––––––––––

DR Peak RMS Duration Track
––––––––––––––––––––––––––––––––––––––––
DR8 -1.47 dB -12.36 dB 3:19 01-Before I Die
DR10 -2.19 dB -14.50 dB 4:54 02-Bake Sale
DR10 -0.51 dB -13.61 dB 2:48 03-Rising in Love
DR10 -0.97 dB -13.75 dB 4:03 04-Pearl Diver
DR11 -1.41 dB -14.84 dB 6:32 05-John and Josie
DR10 -1.63 dB -14.09 dB 3:36 06-The Jordan Waltz
DR9 -2.11 dB -13.66 dB 5:10 07-Vincent
DR9 -2.09 dB -13.77 dB 5:14 08-Mother's Day Card
DR10 -1.77 dB -14.45 dB 5:36 09-That Kind of Grace
DR7 -5.44 dB -15.54 dB 1:27 10-St. Blasien Breath
DR8 -1.51 dB -12.68 dB 6:41 11-Flag of Hope
DR9 -2.11 dB -13.87 dB 4:08 12-Some Kind of Hero
DR10 -2.18 dB -14.85 dB 3:44 13-Lullaby
––––––––––––––––––––––––––––––––––––––––

Number of tracks: 13
Official DR value: DR9

Samplerate: 44100 Hz
Channels: 2
Bits per sample: 24
Bitrate: 1396 kbps
Codec: FLAC

David Roth: Pearl Diver 2004 & More Pearls 2006 [24-bit/44.1 kHz]

More Pearls 2006:

01 - Song for You Far Away (00:03:15)
02 - Don Quixote (00:03:53)
03 - American Tune (00:05:02)
04 - I Will (00:03:09)
05 - Blowin' in the Wind (00:05:03)
06 - Song for Adam (00:04:50)
07 - Would You Like to Learn to Dance (00:05:07)
08 - Last Thing on My Mind (00:04:24)
09 - The Dutchman (00:04:43)
10 - The Great Mandala (00:04:35)
11 - Streets of London (00:04:22)
12 - When I'm Gone (00:05:09)
13 - You've Got a Friend (00:04:09)
14 - Where Have All the Flowers Gone (00:08:03)

foobar2000 1.4.2 / Dynamic Range Meter 1.1.1
log date: 2021-08-03 14:27:52

––––––––––––––––––––––––––––––––––––––––
Analyzed: David Roth / More Pearls
––––––––––––––––––––––––––––––––––––––––

DR Peak RMS Duration Track
––––––––––––––––––––––––––––––––––––––––
DR8 -0.86 dB -10.67 dB 3:16 01-Song for You Far Away
DR7 -0.53 dB -10.26 dB 3:53 02-Don Quixote
DR8 -0.89 dB -12.34 dB 5:02 03-American Tune
DR8 -0.92 dB -11.41 dB 3:10 04-I Will
DR8 -0.86 dB -11.60 dB 5:03 05-Blowin' in the Wind
DR8 -0.74 dB -11.30 dB 4:51 06-Song for Adam
DR9 -0.79 dB -11.84 dB 5:08 07-Would You Like to Learn to Dance?
DR7 -0.90 dB -10.60 dB 4:24 08-Last Thing on My Mind
DR7 -0.79 dB -9.79 dB 4:44 09-The Dutchman
DR7 -0.83 dB -10.51 dB 4:35 10-The Great Mandala
DR7 -0.70 dB -10.76 dB 4:23 11-Streets of London
DR8 -0.85 dB -11.14 dB 5:09 12-When I'm Gone
DR8 -0.81 dB -10.96 dB 4:10 13-You've Got a Friend
DR9 -0.74 dB -11.32 dB 8:03 14-Where Have All the Flowers Gone?
––––––––––––––––––––––––––––––––––––––––

Number of tracks: 14
Official DR value: DR8

Samplerate: 44100 Hz
Channels: 2
Bits per sample: 24
Bitrate: 1510 kbps
Codec: FLAC

All thanks go to the original releaser

Download David Roth: Pearl Diver 2004 & More Pearls 2006: