Tags
Language
Tags

Early Day Miners - Placer Found (2020) [Official Digital Download]

Posted By: Pisulik
Early Day Miners - Placer Found (2020) [Official Digital Download]

Early Day Miners - Placer Found (2020)
FLAC (tracks) 24-bit/44.1 kHz | Time - 61:22 minutes | 649 MB
Studio Master, Official Digital Download | Artwork: Front cover

The opening title track sets the mood just right, its comforting guitar interplay and gentle vocals holding your hand toward an unseen destination that's "still a ways to go." "East Berlin at Night" is the definition of cinematic, almost like an Ativin song with the amplifiers turned down from 12 to 3, while the last two minutes of "Texas Cinema," are the equivalent of a deep embrace from which you never want to let go. Why some sharp-eared music supervisor hasn't utilized "In These Hills" in a movie montage of two people falling in love, I'll never understand. This new edition brings it all back to the proverbial start, as it is being released on the Bloomington label Secretly Canadian which championed Ativin from the beginning and quickly became a home for Early Day Miners after the initial Western Vinyl release of "Placer Found." The two unreleased instrumental tracks on side D are fascinating glimpses into creative paths not taken. "Prospect Refuge" is a delicious slice of posivibes math-rock, while the taut, vaguely ominous "Blue Casino" makes an entirely different song out of a riff later utilized for the standout "Jefferson" from the band's 2003 "Jefferson at Rest" LP.

Tracklist:

1. Placer Found (20th Anniversary Edition) (3:48)
2. East Berlin At Night (20th Anniversary Edition) (6:05)
3. Texas Cinema (20th Anniversary Edition) (5:17)
4. In These Hills (20th Anniversary Edition) (8:53)
5. Stanwix (20th Anniversary Edition) (7:31)
6. Longwall (20th Anniversary Edition) (5:45)
7. Desert Cantos (20th Anniversary Edition) (13:11)
8. Prospect Refuge (20th Anniversary Edition) (5:00)
9. Blue Casino (20th Anniversary Edition) (5:57)

foobar2000 1.3.7 / Dynamic Range Meter 1.1.1
log date: 2020-03-13 11:57:24

––––––––––––––––––––––––––––––––––––––––
Analyzed: Early Day Miners / Placer Found
––––––––––––––––––––––––––––––––––––––––

DR Peak RMS Duration Track
––––––––––––––––––––––––––––––––––––––––
DR8 -0.30 dB -10.16 dB 3:48 01-Placer Found (20th Anniversary Edition)
DR8 -0.30 dB -10.99 dB 6:05 02-East Berlin At Night (20th Anniversary Edition)
DR8 -0.30 dB -9.81 dB 5:17 03-Texas Cinema (20th Anniversary Edition)
DR9 -0.30 dB -12.26 dB 8:53 04-In These Hills (20th Anniversary Edition)
DR9 -0.30 dB -12.15 dB 7:31 05-Stanwix (20th Anniversary Edition)
DR8 -0.30 dB -10.06 dB 5:45 06-Longwall (20th Anniversary Edition)
DR8 -0.30 dB -11.58 dB 13:11 07-Desert Cantos (20th Anniversary Edition)
DR10 -0.30 dB -13.04 dB 5:00 08-Prospect Refuge (20th Anniversary Edition)
DR9 -0.30 dB -12.53 dB 5:57 09-Blue Casino (20th Anniversary Edition)
––––––––––––––––––––––––––––––––––––––––

Number of tracks: 9
Official DR value: DR9

Samplerate: 44100 Hz
Channels: 2
Bits per sample: 24
Bitrate: 1481 kbps
Codec: FLAC
================================================================================


All thanks go to the original releaser