Tags
Language
Tags

Erlend Viken - Sastrugi (2020) [Official Digital Download]

Posted By: Pisulik
Erlend Viken - Sastrugi (2020) [Official Digital Download]

Erlend Viken - Sastrugi (2020)
FLAC (tracks) 24-bit/44.1 kHz | Time - 58:56 minutes | 625 MB
Studio Master, Official Digital Download | Artwork: Front cover

Erlend Viken has composed a striking and personal work in the winter, performed together with a stellar team of musicians. Frida Ånnevik has contributed two lyrics, sung by Ellen Andrea Wang and Marius Graff. Erlend is one of Norway's most accomplished folk musicians and in recent years has invested in his trio Erlend Viken Trio, which takes the folk music out of the box and shows a strong need for exploration. This commissioning work further emphasizes the exploration of the exploration, the different phases of winter from the last to the highly rhythmic, through a work in which the peculiar features of folk music are shrouded in the background of fellow musicians in jazz and pop.

Tracklist:

01. Første dryss (6:55)
02. Pluss - Minus (5:26)
03. Is / Vidsyn (6:21)
04. Jullek (4:46)
05. Et gammelt ord for snø (3:57)
06. Fjord (5:18)
07. Storm (5:34)
08. Var (2:54)
09. Pudder (5:03)
10. Slapseblues (5:24)
11. Etter deg (3:52)
12. Bestandig (3:27)

foobar2000 1.3.7 / Dynamic Range Meter 1.1.1
log date: 2020-02-05 04:35:53

––––––––––––––––––––––––––––––––––––––––
Analyzed: Erlend Viken / Sastrugi
––––––––––––––––––––––––––––––––––––––––

DR Peak RMS Duration Track
––––––––––––––––––––––––––––––––––––––––
DR10 -0.37 dB -15.51 dB 6:55 01-Første dryss
DR10 -0.36 dB -15.99 dB 5:26 02-Pluss - Minus
DR11 -0.43 dB -14.88 dB 6:21 03-Is / Vidsyn
DR10 -0.38 dB -13.25 dB 4:46 04-Jullek
DR12 -0.69 dB -16.83 dB 3:57 05-Et gammelt ord for snø
DR10 -0.43 dB -14.77 dB 5:18 06-Fjord
DR10 -0.38 dB -15.81 dB 5:34 07-Storm
DR12 -7.22 dB -25.24 dB 2:54 08-Var
DR12 -0.40 dB -15.06 dB 5:03 09-Pudder
DR11 -0.31 dB -13.54 dB 5:24 10-Slapseblues
DR10 -0.24 dB -12.37 dB 3:52 11-Etter deg
DR10 -0.34 dB -14.22 dB 3:27 12-Bestandig
––––––––––––––––––––––––––––––––––––––––

Number of tracks: 12
Official DR value: DR11

Samplerate: 44100 Hz
Channels: 2
Bits per sample: 24
Bitrate: 1431 kbps
Codec: FLAC
================================================================================


All thanks go to the original releaser