Falco - Der Kommissar EP (1982/2019) [Official Digital Download]

Posted By: shamanicus
Falco - Der Kommissar EP (1982/2019) [Official Digital Download]

Falco - Der Kommissar EP (1982/2019)
FLAC (tracks) 24-bit/44.1 kHz | 21:39 | 270 mb
Studio Master, Official Digital Download | Artwork: front cover

"Der Kommissar" is a song first recorded by Falco in Austria in 1981, covered a year later by After the Fire. Originally written by Robert Ponger and Falco, the Falco version reached the top of the charts in many countries.
After the Fire's version featured English lyrics by the band's Andy Piercy. The song peaked at No. 5 on the Billboard Hot 100 charts.

Tracklist:

01. Der Kommissar
02. Der Kommissar (Extended Version)
03. Der Kommissar (12" Edit)
04. Helden von heute (Extended Version)


foobar2000 1.4 / Dynamic Range Meter 1.1.1
log date: 2020-01-14 23:46:14

––––––––––––––––––––––––––––––––––––––––
Analyzed: Falco / Der Kommissar EP
––––––––––––––––––––––––––––––––––––––––

DR Peak RMS Duration Track
––––––––––––––––––––––––––––––––––––––––
DR9 -0.50 dB -11.55 dB 3:53 01-Der Kommissar
DR9 -0.50 dB -11.29 dB 6:27 02-Der Kommissar (Extended Version)
DR10 -0.50 dB -11.70 dB 6:05 03-Der Kommissar (12" Edit)
DR8 -0.50 dB -10.78 dB 5:14 04-Helden von heute (Extended Version)
––––––––––––––––––––––––––––––––––––––––

Number of tracks: 4
Official DR value: DR9

Samplerate: 44100 Hz
Channels: 2
Bits per sample: 24
Bitrate: 1694 kbps
Codec: FLAC
================================================================================




Thanks to the Original customer.