Falco - Maschine Brennt EP (1982/2019) [Official Digital Download]

Posted By: shamanicus
Falco - Maschine Brennt EP (1982/2019) [Official Digital Download]

Falco - Maschine Brennt EP (1982/2019)
FLAC (tracks) 24-bit/44.1 kHz | 12:30 | 159 mb
Studio Master, Official Digital Download | Artwork: front cover

Unmittelbar nach dem Erfolg des "Kommissars" veröffentlichte Nachfolge-Single. Fand bei uns 1982 nur wenig Beachtung.

Tracklist:

01. Maschine brennt
02. Maschine brennt (Specially Remixed 12" Version)
03. Maschine brennt (Specially Remixed 7" Version)


foobar2000 1.4 / Dynamic Range Meter 1.1.1
log date: 2020-01-14 20:57:22

––––––––––––––––––––––––––––––––––––––––
Analyzed: Falco / Maschine Brennt EP
––––––––––––––––––––––––––––––––––––––––

DR Peak RMS Duration Track
––––––––––––––––––––––––––––––––––––––––
DR10 -0.50 dB -12.08 dB 3:40 01-Maschine brennt
DR10 -0.50 dB -11.68 dB 4:55 02-Maschine brennt (Specially Remixed 12" Version)
DR10 -0.50 dB -11.97 dB 3:55 03-Maschine brennt (Specially Remixed 7" Version)
––––––––––––––––––––––––––––––––––––––––

Number of tracks: 3
Official DR value: DR10

Samplerate: 44100 Hz
Channels: 2
Bits per sample: 24
Bitrate: 1690 kbps
Codec: FLAC
================================================================================




Thanks to the Original customer.