Falco - That Scene (Ganz Wien) EP (1981/2019) [Official Digital Download]

Posted By: shamanicus
Falco - That Scene (Ganz Wien) EP (1981/2019) [Official Digital Download]

Falco - That Scene (Ganz Wien) EP (1981/2019)
FLAC (tracks) 24-bit/44.1 kHz | 16:16 | 198 mb
Studio Master, Official Digital Download | Artwork: front cover

"Ganz Wien" hat einen provokativen Text, der ganz gut zu Falco gepasst hat. Damals sorgte es für einen Skandal in Österreich. Aus seinem Debüt-Album "Einzelhaft".

Tracklist:

01. That Scene (Ganz Wien)
02. That Scene (Instrumental Version)
03. That Scene (Long Instrumental Version)
04. Ganz Wien



foobar2000 1.4 / Dynamic Range Meter 1.1.1
log date: 2020-01-14 20:57:25

––––––––––––––––––––––––––––––––––––––––
Analyzed: Falco / That Scene (Ganz Wien) EP
––––––––––––––––––––––––––––––––––––––––

DR Peak RMS Duration Track
––––––––––––––––––––––––––––––––––––––––
DR9 -0.51 dB -11.21 dB 4:25 01-That Scene (Ganz Wien)
DR9 -0.51 dB -11.73 dB 2:34 02-That Scene (Instrumental Version)
DR9 -0.51 dB -11.69 dB 4:09 03-That Scene (Long Instrumental Version)
DR9 -0.51 dB -11.49 dB 5:07 04-Ganz Wien
––––––––––––––––––––––––––––––––––––––––

Number of tracks: 4
Official DR value: DR9

Samplerate: 44100 Hz
Channels: 2
Bits per sample: 24
Bitrate: 1605 kbps
Codec: FLAC
================================================================================




Thanks to the Original customer.