Tags
Language
Tags

Frank Turner - Show 2000 – Live At Nottingham Rock City (2019) [Official Digital Download]

Posted By: Pisulik
Frank Turner - Show 2000 – Live At Nottingham Rock City (2019) [Official Digital Download]

Frank Turner - Show 2000 – Live At Nottingham Rock City (2019)
FLAC (tracks) 24-bit/44.1 kHz | Time - 76:46 minutes | 977 MB
Studio Master, Official Digital Download | Artwork: Front cover

Capturing Turner’s 2000th solo show to date in audio and video formats, the new release encapsulates everything a classic Frank Turner live show involves – blistering high energy performance, mass audience sing-a-long and a beautiful community spirit. The night was a real celebration of Frank having performed 2000 live shows in a little over 10 years – which averages out to a consistently amazing 200+ shows a year. "I'm very happy to finally have the recordings of my 2000th show out there in the world - it's been a long time coming. It was a perfect show, and a great document of a certain place in time and in my career"

Tracklist:

1. I Knew Prufrock Before He Got Famous (Live) (3:01)
2. The Next Storm (Live) (3:26)
3. I Still Believe (Live) (4:07)
4. Losing Days (Live) (3:16)
5. Try This At Home (Live) (1:51)
6. Long Live The Queen (Live) (3:56)
7. Glorious You (Live) (2:59)
8. Polaroid Picture (Live) (5:59)
9. Vital Signs (Live) (3:25)
10. Plain Sailing Weather (Live) (4:10)
11. The Way I Tend To Be (Live) (3:46)
12. The Ballad Of Me & My Friends (Live) (2:19)
13. The Opening Act Of Spring (Live) (3:01)
14. The Road (Live) (4:07)
15. If I Ever Stray (Live) (3:50)
16. Out Of Breath (Live) (1:56)
17. Photosynthesis (Live) (4:36)
18. I Am Disappeared (Live) (5:18)
19. Recovery (Live) (3:30)
20. Get Better (Live) (3:28)
21. Four Simple Words (Live) (4:57)

foobar2000 1.3.7 / Dynamic Range Meter 1.1.1
log date: 2019-12-11 17:58:51

––––––––––––––––––––––––––––––––––––––––
Analyzed: Frank Turner / Show 2000 – Live At Nottingham Rock City
––––––––––––––––––––––––––––––––––––––––

DR Peak RMS Duration Track
––––––––––––––––––––––––––––––––––––––––
DR7 -1.09 dB -10.48 dB 3:01 01-I Knew Prufrock Before He Got Famous (Live)
DR7 -1.09 dB -9.12 dB 3:26 02-The Next Storm (Live)
DR7 -1.09 dB -10.03 dB 4:07 03-I Still Believe (Live)
DR7 -1.09 dB -9.37 dB 3:16 04-Losing Days (Live)
DR7 -1.09 dB -9.07 dB 1:51 05-Try This At Home (Live)
DR7 -1.09 dB -10.43 dB 3:56 06-Long Live The Queen (Live)
DR7 -1.09 dB -9.25 dB 2:59 07-Glorious You (Live)
DR8 -1.09 dB -11.67 dB 5:59 08-Polaroid Picture (Live)
DR7 -1.09 dB -9.59 dB 3:25 09-Vital Signs (Live)
DR7 -1.09 dB -9.88 dB 4:10 10-Plain Sailing Weather (Live)
DR8 -1.09 dB -10.74 dB 3:46 11-The Way I Tend To Be (Live)
DR10 -1.10 dB -13.11 dB 2:19 12-The Ballad Of Me & My Friends (Live)
DR8 -1.10 dB -10.48 dB 3:01 13-The Opening Act Of Spring (Live)
DR7 -1.09 dB -10.04 dB 4:07 14-The Road (Live)
DR7 -1.09 dB -10.19 dB 3:50 15-If I Ever Stray (Live)
DR7 -1.09 dB -9.38 dB 1:56 16-Out Of Breath (Live)
DR7 -1.09 dB -9.90 dB 4:36 17-Photosynthesis (Live)
DR8 -1.09 dB -13.57 dB 5:18 18-I Am Disappeared (Live)
DR7 -1.09 dB -9.80 dB 3:30 19-Recovery (Live)
DR7 -1.09 dB -9.48 dB 3:28 20-Get Better (Live)
DR7 -1.08 dB -9.24 dB 4:57 21-Four Simple Words (Live)
––––––––––––––––––––––––––––––––––––––––

Number of tracks: 21
Official DR value: DR7

Samplerate: 44100 Hz
Channels: 2
Bits per sample: 24
Bitrate: 1795 kbps
Codec: FLAC
================================================================================


All thanks go to the original releaser