Tags
Language
Tags

Hayseed Dixie - Blast From the Grassed (2020) [Official Digital Download]

Posted By:
Hayseed Dixie - Blast From the Grassed (2020) [Official Digital Download]

Hayseed Dixie - Blast From the Grassed (2020)
FLAC (tracks) 24-bit/44.1 kHz | Time - 41:40 minutes | 546 MB
Studio Master, Official Digital Download | Artwork: Front cover

Appalachian Mountain hellraisers, Hayseed Dixie, the creators of the "Rockgrass" genre, return for their 20th Anniversary in 2020 with "Blast From the Grassed." This moonshine-inspired collection finds the band bringing the retro party reimagining classic guilty-pleasures songs from the Golden Era of pop-rock. If you already love Hayseed Dixie, you'll love this album; if you think they suck ass, this record will only confirm that for you. A major Ireland and UK tour is coming in March 2020 to promote the release.

Tracklist:

1. Africa (3:21)
2. Staying Alive (4:58)
3. Suspicious Minds (3:41)
4. Take On Me (3:07)
5. Tainted Love (2:30)
6. You Need To Calm Down (2:37)
7. Shout (4:54)
8. Mrs. Robinson (3:11)
9. Sweet Dreams Are Made of This (3:19)
10. Dancing Queen (3:01)
11. Eternal Flame (2:34)
12. Blue Monday (4:35)

foobar2000 1.3.7 / Dynamic Range Meter 1.1.1
log date: 2020-02-14 12:22:17

––––––––––––––––––––––––––––––––––––––––
Analyzed: Hayseed Dixie / Blast From the Grassed
––––––––––––––––––––––––––––––––––––––––

DR Peak RMS Duration Track
––––––––––––––––––––––––––––––––––––––––
DR7 -0.30 dB -8.97 dB 3:21 01-Africa
DR7 -0.30 dB -8.38 dB 4:58 02-Staying Alive
DR8 -0.30 dB -9.30 dB 3:41 03-Suspicious Minds
DR8 -0.30 dB -9.11 dB 3:07 04-Take On Me
DR8 -0.30 dB -9.21 dB 2:30 05-Tainted Love
DR8 -0.30 dB -9.59 dB 2:37 06-You Need To Calm Down
DR8 -0.30 dB -9.14 dB 4:54 07-Shout
DR8 -0.30 dB -9.06 dB 3:11 08-Mrs. Robinson
DR8 -0.30 dB -9.52 dB 3:19 09-Sweet Dreams Are Made of This
DR8 -0.30 dB -8.88 dB 3:01 10-Dancing Queen
DR8 -0.30 dB -10.38 dB 2:34 11-Eternal Flame
DR7 -0.30 dB -9.57 dB 4:35 12-Blue Monday
––––––––––––––––––––––––––––––––––––––––

Number of tracks: 12
Official DR value: DR8

Samplerate: 48000 Hz
Channels: 2
Bits per sample: 24
Bitrate: 1673 kbps
Codec: FLAC
================================================================================


All thanks go to the original releaser