Tags
Language
Tags
March 2024
Su Mo Tu We Th Fr Sa
25 26 27 28 29 1 2
3 4 5 6 7 8 9
10 11 12 13 14 15 16
17 18 19 20 21 22 23
24 25 26 27 28 29 30
31 1 2 3 4 5 6
Attention❗ To save your time, in order to download anything on this site, you must be registered 👉 HERE. If you do not have a registration yet, it is better to do it right away. ✌

( • )( • ) ( ͡⚆ ͜ʖ ͡⚆ ) (‿ˠ‿)
SpicyMags.xyz

Jeff Russo & Nami Melumad - Star Trek: Strange New Worlds (2023) [Official Digital Download]

Posted By: ciklon5
Jeff Russo & Nami Melumad - Star Trek: Strange New Worlds (2023) [Official Digital Download]

Jeff Russo & Nami Melumad - Star Trek: Strange New Worlds (2023) [Official Digital Download]
FLAC (tracks), Lossless [24bit-44kHz] | 1:34:38 | 875 Mb
Genre: Soundtrack / Label: Lakeshore Records

Star Trek: Strange New Worlds is an American television series created by Akiva Goldsman, Alex Kurtzman, and Jenny Lumet for the streaming service Paramount+. It is the 11th Star Trek series and debuted in 2022 as part of Kurtzman's expanded Star Trek Universe. A spin-off from Star Trek: Discovery, it follows Captain Christopher Pike and the crew of the starship USS Enterprise as they explore new worlds throughout the galaxy during the decade before Star Trek: The Original Series.

Track List:
1 01. Jeff Russo & Nami Melumad - Star Trek: Strange New Worlds (Main Title Theme) (01:51)
1 02. Jeff Russo & Nami Melumad - Everyone Wants a Piece of the Pike (03:50)
1 03. Jeff Russo & Nami Melumad - Put a T'Pring On It (02:56)
1 04. Jeff Russo & Nami Melumad - Eyes on the Enterprise (04:42)
1 05. Jeff Russo & Nami Melumad - Home is Where the Helm Is (04:16)
1 06. Jeff Russo & Nami Melumad - Space Cadet (01:01)
1 07. Jeff Russo & Nami Melumad - Comet Away With Me (02:36)
1 08. Jeff Russo & Nami Melumad - Romancing the Comet (03:23)
1 09. Jeff Russo & Nami Melumad - M'hanit and Greet (07:00)
1 10. Jeff Russo & Nami Melumad - Since I First Saw the Stars (03:54)
1 11. Jeff Russo & Nami Melumad - A Holding Pattern (04:44)
1 12. Jeff Russo & Nami Melumad - Gorn With the Wind (05:29)
1 13. Jeff Russo & Nami Melumad - The Pike Maneuver (02:03)
1 14. Jeff Russo & Nami Melumad - Gorn But Not Forgotten (03:24)
1 15. Jeff Russo & Nami Melumad - Are You a Vulcan or a Vulcan't? (02:59)
1 16. Jeff Russo & Nami Melumad - Spock Too Soon (02:03)
1 17. Jeff Russo & Nami Melumad - Chris Crossed (03:43)
1 18. Jeff Russo & Nami Melumad - Looking For Ascension in All the Wrong Places (03:04)
1 19. Jeff Russo & Nami Melumad - Ascent-ial Questions (02:01)
1 20. Jeff Russo & Nami Melumad - T'Pring It On (01:42)
1 21. Jeff Russo & Nami Melumad - Pirates in the Sky (02:54)
1 22. Jeff Russo & Nami Melumad - Will You Be My Vulcantine? (02:45)
1 23. Jeff Russo & Nami Melumad - Won't You Be My Pirate? (03:38)
1 24. Jeff Russo & Nami Melumad - You're My Mercury Stone (02:04)
1 25. Jeff Russo & Nami Melumad - Don't Leave in Uhurry (02:54)
1 26. Jeff Russo & Nami Melumad - When the Hemmer Falls (04:09)
1 27. Jeff Russo & Nami Melumad - No One's Ever Neutral About Spaghetti (02:53)
1 28. Jeff Russo & Nami Melumad - Throw Plasma From the Train (05:28)
1 29. Jeff Russo & Nami Melumad - Star Trek: Strange New Worlds (End Credits) (00:57)

foobar2000 1.6.10 / Dynamic Range Meter 1.1.1
log date: 2023-04-28 10:41:11

––––––––––––––––––––––––––––––––––––––––
Analyzed: Jeff Russo / Star Trek: Strange New Worlds (Original Series Soundtrack) (1-2)
Nami Melumad / Star Trek: Strange New Worlds (Original Series Soundtrack) (3-29)
––––––––––––––––––––––––––––––––––––––––

DR Peak RMS Duration Track
––––––––––––––––––––––––––––––––––––––––
DR9 -0.02 dB -12.76 dB 1:52 01-Star Trek: Strange New Worlds (Main Title Theme)
DR8 -0.02 dB -9.60 dB 0:58 29-Star Trek: Strange New Worlds (End Credits)
DR8 -0.02 dB -13.65 dB 3:51 02-Everyone Wants a Piece of the Pike
DR12 -0.02 dB -18.61 dB 2:56 03-Put a T'Pring On It
DR14 -0.02 dB -20.27 dB 4:42 04-Eyes on the Enterprise
DR12 -0.02 dB -17.41 dB 4:17 05-Home is Where the Helm Is
DR11 -0.02 dB -14.99 dB 1:01 06-Space Cadet
DR10 -0.02 dB -14.60 dB 2:36 07-Comet Away With Me
DR8 -0.02 dB -13.61 dB 3:23 08-Romancing the Comet
DR6 -0.03 dB -10.31 dB 7:01 09-M'hanit and Greet
DR10 -0.02 dB -16.77 dB 3:55 10-Since I First Saw the Stars
DR14 -0.02 dB -19.96 dB 4:44 11-A Holding Pattern
DR11 -0.02 dB -17.23 dB 5:29 12-Gorn With the Wind
DR8 -0.02 dB -12.73 dB 2:03 13-The Pike Maneuver
DR10 -0.03 dB -15.89 dB 3:25 14-Gorn But Not Forgotten
DR5 -0.02 dB -9.37 dB 3:00 15-Are You a Vulcan or a Vulcan't?
DR11 -0.02 dB -16.95 dB 2:03 16-Spock Too Soon
DR12 -0.02 dB -17.36 dB 3:44 17-Chris Crossed
DR11 -0.02 dB -16.61 dB 3:04 18-Looking For Ascension in All the Wrong Places
DR12 -0.02 dB -18.75 dB 2:01 19-Ascent-ial Questions
DR12 -0.02 dB -16.38 dB 1:43 20-T'Pring It On
DR10 -0.02 dB -16.26 dB 2:55 21-Pirates in the Sky
DR11 -0.02 dB -15.93 dB 2:45 22-Will You Be My Vulcantine?
DR11 -0.02 dB -15.59 dB 3:38 23-Won't You Be My Pirate?
DR10 -0.02 dB -15.73 dB 2:05 24-You're My Mercury Stone
DR12 -0.44 dB -19.13 dB 2:55 25-Don't Leave in Uhurry
DR11 -0.03 dB -16.04 dB 4:09 26-When the Hemmer Falls
DR11 -1.22 dB -18.94 dB 2:53 27-No One's Ever Neutral About Spaghetti
DR13 -0.03 dB -19.31 dB 5:29 28-Throw Plasma From the Train
––––––––––––––––––––––––––––––––––––––––

Number of tracks: 29
Official DR value: DR11

Samplerate: 44100 Hz
Channels: 2
Bits per sample: 24
Bitrate: 1248 kbps
Codec: FLAC
================================================================================