Tags
Language
Tags

Metallica - Metallica (2021) [Remastered Deluxe Box Set]

Posted By: v3122
Metallica - Metallica (2021) [Remastered Deluxe Box Set]

Metallica - Metallica (2021)
FLAC (Tracks) 24-bit/44.1, 96, 192 kHz | Official Digital Download | Time: 15:38:37
Thrash Metal | Label: Blackened Recordings Inc. | ~ 16.35 Gb

In celebration of 30 years of "The Black Album", welcome the definitive re-release: Metallica (Remastered).

Metallica is the fifth studio album by American heavy metal band Metallica. Released on August 12, 1991, by Elektra Records, it is commonly referred to as The Black Album because of its packaging design. Its recording took place at One on One Studios in Los Angeles over an eight-month span that frequently found Metallica at odds with their new producer Bob Rock. The album marked a change in the band's music from the thrash metal style of their previous four albums to a slower, heavier, and more refined sound.

Metallica promoted Metallica with a series of tours. They also released five singles to promote the album: "Enter Sandman", "The Unforgiven", "Nothing Else Matters", "Wherever I May Roam", and "Sad but True", all of which have been considered to be among the band's best-known songs. The song "Don't Tread on Me" was also issued to rock radio shortly after the album's release but did not receive a commercial single release.

James Hetfield, vocals, rhythm guitar, acoustic guitar, guitar solo on "Nothing Else Matters"
Kirk Hammett, lead guitar
Jason Newsted, bass
Lars Ulrich, drums, percussion
Metallica - Metallica (2021):

Tracklist Disc 1: Metallica (Remastered) (01:02:39) [24-bit/96 kHz]:

01. Enter Sandman (5:32)
02. Sad But True (5:25)
03. Holier Than Thou (3:48)
04. The Unforgiven (6:27)
05. Wherever I May Roam (6:44)
06. Don't Tread on Me (4:00)
07. Through the Never (4:05)
08. Nothing Else Matters (6:29)
09. Of Wolf and Man (4:17)
10. The God That Failed (5:09)
11. My Friend of Misery (6:50)
12. The Struggle Within (3:53)

foobar2000 1.6.5 / Dynamic Range Meter 1.1.1

––––––––––––––––––––––––––––––––––––––––
Analyzed: Metallica / Metallica (Remastered Deluxe Boxset)
––––––––––––––––––––––––––––––––––––––––

DR Peak RMS Duration Track
––––––––––––––––––––––––––––––––––––––––
DR9 -0.10 dB -11.21 dB 5:32 01-Enter Sandman
DR9 -0.10 dB -11.16 dB 5:25 02-Sad But True
DR9 -0.10 dB -10.72 dB 3:48 03-Holier Than Thou
DR10 -0.10 dB -12.21 dB 6:27 04-The Unforgiven
DR10 -0.10 dB -11.23 dB 6:44 05-Wherever I May Roam
DR10 -0.10 dB -10.69 dB 4:00 06-Don't Tread on Me
DR9 -0.10 dB -9.93 dB 4:05 07-Through the Never
DR10 -0.10 dB -13.23 dB 6:29 08-Nothing Else Matters
DR10 -0.10 dB -11.01 dB 4:17 09-Of Wolf and Man
DR9 -0.10 dB -10.46 dB 5:09 10-The God That Failed
DR9 -0.10 dB -11.38 dB 6:50 11-My Friend of Misery
DR10 -0.10 dB -10.92 dB 3:53 12-The Struggle Within
––––––––––––––––––––––––––––––––––––––––

Number of tracks: 12
Official DR value: DR10

Samplerate: 96000 Hz
Channels: 2
Bits per sample: 24
Bitrate: 3032 kbps
Codec: FLAC

Tracklist Disc 2: Live at Arco Arena, Sacramento, CA, January 11th, 1992 (01:18:27) [24-bit/44.1 kHz]:

01. The Ecstasy of Gold (1:45)
02. Enter Sandman (5:28)
03. Creeping Death (8:04)
04. Harvester of Sorrow (6:25)
05. Welcome Home (Sanitarium) (7:45)
06. Sad But True (5:24)
07. Wherever I May Roam (6:27)
08. The Four Horsemen (7:28)
09. Bass Solo (8:17)
10. Through the Never (4:23)
11. The Unforgiven (7:31)
12. Justice Medley (9:30)

foobar2000 1.6.5 / Dynamic Range Meter 1.1.1

––––––––––––––––––––––––––––––––––––––––
Analyzed: Ennio Morricone / Metallica (Remastered Deluxe Boxset) (1)
Metallica / Metallica (Remastered Deluxe Boxset) (2-12)
––––––––––––––––––––––––––––––––––––––––

DR Peak RMS Duration Track
––––––––––––––––––––––––––––––––––––––––
DR10 -3.66 dB -18.99 dB 1:45 01-The Ecstasy of Gold
DR11 -0.10 dB -12.77 dB 5:28 02-Enter Sandman
DR11 -0.10 dB -12.94 dB 8:04 03-Creeping Death
DR10 -0.10 dB -12.87 dB 6:25 04-Harvester of Sorrow
DR11 -0.10 dB -13.67 dB 7:45 05-Welcome Home (Sanitarium)
DR10 -0.10 dB -12.23 dB 5:24 06-Sad But True
DR11 -0.10 dB -12.21 dB 6:27 07-Wherever I May Roam
DR11 -0.10 dB -13.51 dB 7:28 08-The Four Horsemen
DR10 -4.07 dB -17.87 dB 8:17 09-Bass Solo
DR10 -0.10 dB -12.56 dB 4:23 10-Through the Never
DR10 -0.10 dB -12.90 dB 7:31 11-The Unforgiven
DR10 -0.10 dB -12.06 dB 9:30 12-Justice Medley
––––––––––––––––––––––––––––––––––––––––

Number of tracks: 12
Official DR value: DR11

Samplerate: 44100 Hz
Channels: 2
Bits per sample: 24
Bitrate: 1481 kbps
Codec: FLAC

Tracklist Disc 3: Live at Arco Arena, Sacramento, CA, January 11th, 1992 (00:54:53) [24-bit/44.1 kHz]:

01. Drum Solo (12:47)
02. Guitar Solo (5:51)
03. For Whom the Bell Tolls (5:28)
04. Fade to Black (7:54)
05. Whiplash (4:51)
06. Encore Jam (1:09)
07. Master of Puppets (4:05)
08. Seek & Destroy (12:48)

foobar2000 1.6.5 / Dynamic Range Meter 1.1.1

––––––––––––––––––––––––––––––––––––––––
Analyzed: Metallica / Metallica (Remastered Deluxe Boxset)
––––––––––––––––––––––––––––––––––––––––

DR Peak RMS Duration Track
––––––––––––––––––––––––––––––––––––––––
DR13 -0.10 dB -15.90 dB 12:47 01-Drum Solo
DR13 -0.10 dB -16.58 dB 5:51 02-Guitar Solo
DR10 -0.10 dB -11.83 dB 5:28 03-For Whom the Bell Tolls
DR11 -0.10 dB -13.16 dB 7:54 04-Fade to Black
DR10 -0.10 dB -12.08 dB 4:51 05-Whiplash
DR14 -0.10 dB -16.41 dB 1:09 06-Encore Jam
DR11 -0.10 dB -12.86 dB 4:05 07-Master of Puppets
DR11 -0.10 dB -13.59 dB 12:48 08-Seek & Destroy
––––––––––––––––––––––––––––––––––––––––

Number of tracks: 8
Official DR value: DR12

Samplerate: 44100 Hz
Channels: 2
Bits per sample: 24
Bitrate: 1487 kbps
Codec: FLAC

Tracklist Disc 4: Live at Arco Arena, Sacramento, CA, January 11th, 1992 + Covers + B-Sides (00:50:52) [24-bit/44.1 kHz]:

01. One (9:30)
02. Last Caress (1:30)
03. Am I Evil? (4:52)
04. Battery (5:16)
05. Encore Jam #2 (1:45)
06. Breadfan (4:11)
07. Stone Cold Crazy (Remastered) (2:19)
08. So What (Remastered) (3:09)
09. Killing Time (Remastered) (3:05)
10. Stone Cold Crazy (feat. Tony Iommi) (Live at Wembley Stadium, London, 1992) (3:03)
11. Harvester of Sorrow (Live at The Liebenau, Graz, Austria, September 11th, 1991) (6:01)
12. Nothing Else Matters (Live at Aggie Memorial Stadium, Las Cruces, NM, August 27th, 1992) (6:11)

foobar2000 1.6.5 / Dynamic Range Meter 1.1.1

––––––––––––––––––––––––––––––––––––––––
Analyzed: Metallica / Metallica (Remastered Deluxe Boxset)
––––––––––––––––––––––––––––––––––––––––

DR Peak RMS Duration Track
––––––––––––––––––––––––––––––––––––––––
DR11 -0.10 dB -13.36 dB 9:30 01-One
DR11 -0.10 dB -12.98 dB 1:30 02-Last Caress
DR11 -0.10 dB -13.20 dB 4:52 03-Am I Evil?
DR11 -0.10 dB -12.46 dB 5:16 04-Battery
DR14 -0.10 dB -19.66 dB 1:45 05-Encore Jam #2
DR10 -0.10 dB -12.34 dB 4:11 06-Breadfan
DR11 -0.10 dB -13.06 dB 2:19 07-Stone Cold Crazy (Remastered)
DR10 -0.10 dB -11.68 dB 3:09 08-So What (Remastered)
DR11 -0.10 dB -12.53 dB 3:05 09-Killing Time (Remastered)
DR10 -0.10 dB -12.45 dB 3:03 10-Stone Cold Crazy (feat. Tony Iommi) (Live at Wembley Stadium, London, 1992)
DR11 -0.10 dB -12.48 dB 6:01 11-Harvester of Sorrow (Live at The Liebenau, Graz, Austria, September 11th, 1991)
DR13 -0.10 dB -15.74 dB 6:11 12-Nothing Else Matters (Live at Aggie Memorial Stadium, Las Cruces, NM, August 27th, 1992)
––––––––––––––––––––––––––––––––––––––––

Number of tracks: 12
Official DR value: DR11

Samplerate: 44100 Hz
Channels: 2
Bits per sample: 24
Bitrate: 1647 kbps
Codec: FLAC

Tracklist Disc 5: Live at Maimarktgelände, Mannheim, Germany, May 22nd, 1993 (01:19:10) [24-bit/44.1 kHz]:

01. The Ecstasy of Gold (1:41)
02. Creeping Death (7:07)
03. Harvester of Sorrow (7:02)
04. Welcome Home (Sanitarium) (6:51)
05. Of Wolf and Man (4:17)
06. Wherever I May Roam (6:53)
07. The Thing That Should Not Be (8:25)
08. The Unforgiven (7:04)
09. Disposable Heroes (8:58)
10. Bass Solo (7:44)
11. Instrumental Medley (6:48)
12. Guitar Solo (1:17)
13. The Four Horsemen (5:03)

foobar2000 1.6.5 / Dynamic Range Meter 1.1.1

––––––––––––––––––––––––––––––––––––––––
Analyzed: Ennio Morricone / Metallica (Remastered Deluxe Boxset) (1)
Metallica / Metallica (Remastered Deluxe Boxset) (2-13)
––––––––––––––––––––––––––––––––––––––––

DR Peak RMS Duration Track
––––––––––––––––––––––––––––––––––––––––
DR10 -4.32 dB -19.20 dB 1:41 01-The Ecstasy of Gold
DR11 -0.10 dB -12.65 dB 7:07 02-Creeping Death
DR12 -0.10 dB -13.57 dB 7:02 03-Harvester of Sorrow
DR11 -0.10 dB -13.21 dB 6:51 04-Welcome Home (Sanitarium)
DR11 -0.10 dB -12.93 dB 4:17 05-Of Wolf and Man
DR11 -0.10 dB -12.49 dB 6:53 06-Wherever I May Roam
DR9 -0.10 dB -12.14 dB 8:25 07-The Thing That Should Not Be
DR10 -0.10 dB -12.84 dB 7:04 08-The Unforgiven
DR10 -0.10 dB -11.86 dB 8:58 09-Disposable Heroes
DR11 -1.69 dB -17.86 dB 7:44 10-Bass Solo
DR11 -0.10 dB -13.51 dB 6:48 11-Instrumental Medley
DR11 -0.10 dB -16.19 dB 1:17 12-Guitar Solo
DR10 -0.10 dB -11.76 dB 5:03 13-The Four Horsemen
––––––––––––––––––––––––––––––––––––––––

Number of tracks: 13
Official DR value: DR11

Samplerate: 44100 Hz
Channels: 2
Bits per sample: 24
Bitrate: 1642 kbps
Codec: FLAC

Tracklist Disc 6: Live at Maimarktgelände, Mannheim, Germany, May 22nd, 1993 (01:14:44) [24-bit/44.1 kHz]:

01. For Whom the Bell Tolls (5:58)
02. Fade to Black (7:08)
03. Master of Puppets (4:23)
04. Seek & Destroy (17:35)
05. Battery (5:42)
06. Nothing Else Matters (6:30)
07. Sad But True (6:03)
08. Last Caress (1:25)
09. One (10:15)
10. Enter Sandman (6:14)
11. So What (3:31)

foobar2000 1.6.5 / Dynamic Range Meter 1.1.1

––––––––––––––––––––––––––––––––––––––––
Analyzed: Metallica / Metallica (Remastered Deluxe Boxset)
––––––––––––––––––––––––––––––––––––––––

DR Peak RMS Duration Track
––––––––––––––––––––––––––––––––––––––––
DR10 -0.10 dB -12.01 dB 5:58 01-For Whom the Bell Tolls
DR11 0.00 dB -12.43 dB 7:08 02-Fade to Black
DR10 -0.10 dB -12.24 dB 4:23 03-Master of Puppets
DR10 0.00 dB -12.54 dB 17:35 04-Seek & Destroy
DR10 -0.10 dB -11.84 dB 5:42 05-Battery
DR12 -0.10 dB -15.38 dB 6:30 06-Nothing Else Matters
DR9 -0.10 dB -11.18 dB 6:03 07-Sad But True
DR10 -0.10 dB -11.85 dB 1:25 08-Last Caress
DR10 -0.10 dB -12.71 dB 10:15 09-One
DR9 0.00 dB -10.86 dB 6:14 10-Enter Sandman
DR9 -0.10 dB -11.43 dB 3:31 11-So What
––––––––––––––––––––––––––––––––––––––––

Number of tracks: 11
Official DR value: DR10

Samplerate: 44100 Hz
Channels: 2
Bits per sample: 24
Bitrate: 1582 kbps
Codec: FLAC

Tracklist Disc 7: Live at Wembley Stadium, London, April 20th, 1992 (00:18:57) [24-bit/96 kHz]:

01. Enter Sandman (6:59)
02. Sad But True (5:34)
03. Nothing Else Matters (6:24)

foobar2000 1.6.5 / Dynamic Range Meter 1.1.1

––––––––––––––––––––––––––––––––––––––––
Analyzed: Metallica / Metallica (Remastered Deluxe Boxset)
––––––––––––––––––––––––––––––––––––––––

DR Peak RMS Duration Track
––––––––––––––––––––––––––––––––––––––––
DR8 -0.10 dB -9.64 dB 6:59 01-Enter Sandman
DR8 -0.10 dB -8.89 dB 5:34 02-Sad But True
DR8 -0.10 dB -10.03 dB 6:24 03-Nothing Else Matters
––––––––––––––––––––––––––––––––––––––––

Number of tracks: 3
Official DR value: DR8

Samplerate: 96000 Hz
Channels: 2
Bits per sample: 24
Bitrate: 2888 kbps
Codec: FLAC

Tracklist Disc 8: Tushino Airfield, Moscow, Russia, September 28th, 1991 (01:22:55) [24-bit/96 kHz]:

01. The Ecstasy of Gold (1:54)
02. Enter Sandman (5:21)
03. Creeping Death (7:57)
04. Harvester of Sorrow (7:04)
05. Fade to Black (7:45)
06. Sad But True (6:01)
07. Master of Puppets (4:14)
08. Seek & Destroy (7:58)
09. For Whom the Bell Tolls (5:48)
10. One (8:15)
11. Whiplash (5:42)
12. Encore Jam (1:30)
13. Last Caress (1:28)
14. Am I Evil? (4:44)
15. Battery (7:14)

foobar2000 1.6.5 / Dynamic Range Meter 1.1.1

––––––––––––––––––––––––––––––––––––––––
Analyzed: Ennio Morricone / Metallica (Remastered Deluxe Boxset) (1)
Metallica / Metallica (Remastered Deluxe Boxset) (2-15)
––––––––––––––––––––––––––––––––––––––––

DR Peak RMS Duration Track
––––––––––––––––––––––––––––––––––––––––
DR9 -1.23 dB -14.23 dB 1:54 01-The Ecstasy of Gold
DR8 -0.10 dB -8.74 dB 5:21 02-Enter Sandman
DR7 -0.05 dB -8.29 dB 7:57 03-Creeping Death
DR8 -0.10 dB -9.15 dB 7:04 04-Harvester of Sorrow
DR7 -0.10 dB -9.47 dB 7:45 05-Fade to Black
DR8 -0.05 dB -9.39 dB 6:01 06-Sad But True
DR8 -0.10 dB -9.04 dB 4:14 07-Master of Puppets
DR8 -0.10 dB -9.05 dB 7:58 08-Seek & Destroy
DR8 -0.10 dB -8.98 dB 5:48 09-For Whom the Bell Tolls
DR8 -0.10 dB -10.14 dB 8:15 10-One
DR7 -0.10 dB -8.95 dB 5:42 11-Whiplash
DR8 -0.10 dB -10.54 dB 1:30 12-Encore Jam
DR8 -0.10 dB -8.56 dB 1:28 13-Last Caress
DR8 -0.10 dB -9.07 dB 4:44 14-Am I Evil?
DR7 -0.10 dB -9.54 dB 7:14 15-Battery
––––––––––––––––––––––––––––––––––––––––

Number of tracks: 15
Official DR value: DR8

Samplerate: 96000 Hz
Channels: 2
Bits per sample: 24
Bitrate: 2971 kbps
Codec: FLAC

Tracklist Disc 9: Riffs & Demos (01:12:20) [24-bit/96 kHz]:

01. The Unforgiven (From James' Riff Tapes) (1:08)
02. Nothing Else Matters (From James' Riff Tapes) (4:55)
03. Sad But True (From James' Riff Tapes) (0:56)
04. Holier Than Thou (From James' Riff Tapes) (1:48)
05. Don't Tread on Me (From James' Riff Tapes) (1:13)
06. The Unforgiven (From James' Riff Tapes II) (0:22)
07. The Struggle Within (From James' Riff Tapes) (1:32)
08. The Unforgiven (From James' Riff Tapes III) (2:10)
09. The God That Failed (From James' Riff Tapes) (0:43)
10. Wherever I May Roam (From James' Riff Tapes) (0:25)
11. Enter Sandman (From Kirk's Riff Tapes) (1:12)
12. Through the Never (From Kirk's Riff Tapes) (1:27)
13. Of Wolf and Man (From Kirk's Riff Tapes) (0:30)
14. Enter Sandman (From Kirk's Riff Tapes II) (0:40)
15. My Friend of Misery (From Jason's Riff Tapes) (4:38)
16. Enter Sandman (July 6th, 1990, Writing in Progress) (1:34)
17. Sad But True (July 6th, 1990, Writing in Progress) (2:00)
18. The God That Failed (July 6th, 1990, Writing in Progress) (1:16)
19. Don't Tread on Me (July 6th, 1990, Writing in Progress) (1:05)
20. The Struggle Within (July 6th, 1990, Writing in Progress) (0:42)
21. Holier Than Thou (July 6th, 1990, Writing in Progress) (1:40)
22. Sad But True (July 10th, 1990, Writing in Progress) (0:53)
23. Sad But True (July 12th, 1990 Demo) (5:12)
24. Don't Tread on Me (July 12th, 1990 Demo) (4:09)
25. Enter Sandman (July 12th, 1990, Demo) (4:50)
26. Nothing Else Matters (July 12th, 1990 Demo) (6:04)
27. Of Wolf and Man (July 12th, 1990, Writing in Progress) (2:21)
28. Through the Never (July 12th, 1990, Writing in Progress) (3:00)
29. The Struggle Within (July 24th, 1990, Writing in Progress) (1:25)
30. Wherever I May Roam (July 24th, 1990, Writing in Progress) (2:17)
31. Wherever I May Roam (July 30,1990 Writing in Progress) (6:06)
32. The Struggle Within (July 30th, 1990, Writing in Progress) (3:47)

foobar2000 1.6.5 / Dynamic Range Meter 1.1.1

––––––––––––––––––––––––––––––––––––––––
Analyzed: Metallica / Metallica (Remastered Deluxe Boxset)
––––––––––––––––––––––––––––––––––––––––

DR Peak RMS Duration Track
––––––––––––––––––––––––––––––––––––––––
DR7 -4.10 dB -13.87 dB 1:08 01-The Unforgiven (From James' Riff Tapes)
DR8 -5.23 dB -15.16 dB 4:55 02-Nothing Else Matters (From James' Riff Tapes)
DR9 -0.79 dB -11.65 dB 0:56 03-Sad But True (From James' Riff Tapes)
DR8 -0.76 dB -10.68 dB 1:48 04-Holier Than Thou (From James' Riff Tapes)
DR9 -0.10 dB -10.64 dB 1:13 05-Don't Tread on Me (From James' Riff Tapes)
DR10 -0.10 dB -11.28 dB 0:22 06-The Unforgiven (From James' Riff Tapes II)
DR9 -0.10 dB -10.22 dB 1:32 07-The Struggle Within (From James' Riff Tapes)
DR11 -0.10 dB -14.19 dB 2:10 08-The Unforgiven (From James' Riff Tapes III)
DR8 -5.32 dB -17.05 dB 0:43 09-The God That Failed (From James' Riff Tapes)
DR5 -7.02 dB -14.55 dB 0:25 10-Wherever I May Roam (From James' Riff Tapes)
DR9 -1.54 dB -18.72 dB 1:12 11-Enter Sandman (From Kirk's Riff Tapes)
DR10 -7.71 dB -19.02 dB 1:27 12-Through the Never (From Kirk's Riff Tapes)
DR11 -7.67 dB -19.46 dB 0:30 13-Of Wolf and Man (From Kirk's Riff Tapes)
DR10 -3.27 dB -16.54 dB 0:40 14-Enter Sandman (From Kirk's Riff Tapes II)
DR10 -4.29 dB -16.05 dB 4:38 15-My Friend of Misery (From Jason's Riff Tapes)
DR13 -0.10 dB -15.92 dB 1:34 16-Enter Sandman (July 6th, 1990, Writing in Progress)
DR12 -0.10 dB -14.10 dB 2:00 17-Sad But True (July 6th, 1990, Writing in Progress)
DR12 -0.10 dB -14.25 dB 1:16 18-The God That Failed (July 6th, 1990, Writing in Progress)
DR12 -0.10 dB -14.17 dB 1:05 19-Don't Tread on Me (July 6th, 1990, Writing in Progress)
DR12 -0.10 dB -14.35 dB 0:42 20-The Struggle Within (July 6th, 1990, Writing in Progress)
DR12 -0.10 dB -14.23 dB 1:40 21-Holier Than Thou (July 6th, 1990, Writing in Progress)
DR11 -0.10 dB -13.52 dB 0:53 22-Sad But True (July 10th, 1990, Writing in Progress)
DR10 -0.10 dB -11.86 dB 5:12 23-Sad But True (July 12th, 1990 Demo)
DR10 -0.79 dB -13.07 dB 4:09 24-Don't Tread on Me (July 12th, 1990 Demo)
DR10 -0.86 dB -14.05 dB 4:50 25-Enter Sandman (July 12th, 1990, Demo)
DR10 -4.04 dB -19.21 dB 6:04 26-Nothing Else Matters (July 12th, 1990 Demo)
DR11 -2.09 dB -15.02 dB 2:21 27-Of Wolf and Man (July 12th, 1990, Writing in Progress)
DR12 -0.57 dB -13.60 dB 3:00 28-Through the Never (July 12th, 1990, Writing in Progress)
DR12 -0.10 dB -13.99 dB 1:25 29-The Struggle Within (July 24th, 1990, Writing in Progress)
DR12 -0.10 dB -13.94 dB 2:17 30-Wherever I May Roam (July 24th, 1990, Writing in Progress)
DR11 -0.10 dB -11.82 dB 6:06 31-Wherever I May Roam (July 30,1990 Writing in Progress)
DR12 -0.10 dB -13.27 dB 3:47 32-The Struggle Within (July 30th, 1990, Writing in Progress)
––––––––––––––––––––––––––––––––––––––––

Number of tracks: 32
Official DR value: DR10

Samplerate: 96000 Hz
Channels: 2
Bits per sample: 24
Bitrate: 2826 kbps
Codec: FLAC

Tracklist Disc 10: Riffs & Demos (01:03:11) [24-bit/96 kHz]:

01. Enter Sandman (August 13th, 1990 Demo) (5:04)
02. Sad But True (August 13th, 1990 Demo) (4:54)
03. Don't Tread on Me (August 13th, 1990 Demo) (3:59)
04. Nothing Else Matters (August 13th, 1990 Demo) (5:54)
05. Holier Than Thou (August 13th, 1990 Demo) (3:48)
06. Wherever I May Roam (August 13th, 1990 Demo) (5:36)
07. The Struggle Within (August 13th, 1990 Demo) (3:45)
08. The God That Failed (August 22nd, 1990, Writing in Progress) (1:20)
09. Of Wolf and Man (August 22nd, 1990, Writing in Progress) (1:01)
10. My Friend of Misery (August 29th, 1990, Writing in Progress) (4:05)
11. The Unforgiven (August 29th, 1990, Writing in Progress) (3:44)
12. Through the Never (August 31st, 1990 Demo) (3:39)
13. Of Wolf and Man (August 31st, 1990 Demo) (4:05)
14. The God That Failed Us (August 31st, 1990 Demo) (4:45)
15. The Unforgiven (September 3rd, 1990, Writing in Progress) (5:45)
16. My Friend of Misery (September 3rd, 1990, Writing in Progress) (1:47)

foobar2000 1.6.5 / Dynamic Range Meter 1.1.1

––––––––––––––––––––––––––––––––––––––––
Analyzed: Metallica / Metallica (Remastered Deluxe Boxset)
––––––––––––––––––––––––––––––––––––––––

DR Peak RMS Duration Track
––––––––––––––––––––––––––––––––––––––––
DR8 -1.80 dB -12.58 dB 5:04 01-Enter Sandman (August 13th, 1990 Demo)
DR9 -1.40 dB -12.72 dB 4:54 02-Sad But True (August 13th, 1990 Demo)
DR10 -1.98 dB -12.96 dB 3:59 03-Don't Tread on Me (August 13th, 1990 Demo)
DR10 -2.55 dB -15.78 dB 5:54 04-Nothing Else Matters (August 13th, 1990 Demo)
DR9 -1.80 dB -12.89 dB 3:48 05-Holier Than Thou (August 13th, 1990 Demo)
DR9 -2.52 dB -13.86 dB 5:36 06-Wherever I May Roam (August 13th, 1990 Demo)
DR9 -2.17 dB -14.31 dB 3:45 07-The Struggle Within (August 13th, 1990 Demo)
DR9 -3.36 dB -14.55 dB 1:20 08-The God That Failed (August 22nd, 1990, Writing in Progress)
DR14 -0.50 dB -15.41 dB 1:01 09-Of Wolf and Man (August 22nd, 1990, Writing in Progress)
DR9 -3.81 dB -14.35 dB 4:05 10-My Friend of Misery (August 29th, 1990, Writing in Progress)
DR11 -2.50 dB -17.45 dB 3:44 11-The Unforgiven (August 29th, 1990, Writing in Progress)
DR11 -1.40 dB -13.88 dB 3:39 12-Through the Never (August 31st, 1990 Demo)
DR12 -1.03 dB -14.60 dB 4:05 13-Of Wolf and Man (August 31st, 1990 Demo)
DR11 -0.96 dB -14.20 dB 4:45 14-The God That Failed Us (August 31st, 1990 Demo)
DR13 -2.29 dB -17.97 dB 5:45 15-The Unforgiven (September 3rd, 1990, Writing in Progress)
DR10 -3.34 dB -14.93 dB 1:47 16-My Friend of Misery (September 3rd, 1990, Writing in Progress)
––––––––––––––––––––––––––––––––––––––––

Number of tracks: 16
Official DR value: DR10

Samplerate: 96000 Hz
Channels: 2
Bits per sample: 24
Bitrate: 2804 kbps
Codec: FLAC

Tracklist Disc 11: Pre-Production Rehearsals + Radio Editsriffs (01:19:58) [24-bit/96 kHz]:

01. Enter Sandman (Pre-Production Rehearsal) (4:59)
02. Sad But True (Pre-Production Rehearsal) (5:18)
03. Holier Than Thou (Pre-Production Rehearsal) (3:47)
04. Nothing Else Matters (Pre-Production Rehearsal) (6:11)
05. Wherever I May Roam (Pre-Production Rehearsal) (6:08)
06. Don't Tread on Me (Pre-Production Rehearsal) (4:08)
07. Through the Never (Pre-Production Rehearsal) (3:50)
08. The Unforgiven (Pre-Production Rehearsal) (6:43)
09. Of Wolf and Man (Pre-Production Rehearsal) (4:16)
10. The God That Failed (Pre-Production Rehearsal) (5:11)
11. My Friend of Misery (Pre-Production Rehearsal) (6:24)
12. The Struggle Within (Pre-Production Rehearsal) (3:59)
13. Enter Sandman (Radio Edit) (4:02)
14. The Unforgiven (Radio Edit) (5:01)
15. Nothing Else Matters (Radio Edit) (5:01)
16. Wherever I May Roam (Radio Edit) (5:00)

foobar2000 1.6.5 / Dynamic Range Meter 1.1.1

––––––––––––––––––––––––––––––––––––––––
Analyzed: Metallica / Metallica (Remastered Deluxe Boxset)
––––––––––––––––––––––––––––––––––––––––

DR Peak RMS Duration Track
––––––––––––––––––––––––––––––––––––––––
DR8 -0.40 dB -9.40 dB 4:59 01-Enter Sandman (Pre-Production Rehearsal)
DR8 -0.40 dB -9.18 dB 5:18 02-Sad But True (Pre-Production Rehearsal)
DR8 -0.40 dB -8.98 dB 3:47 03-Holier Than Thou (Pre-Production Rehearsal)
DR11 -0.01 dB -13.94 dB 6:11 04-Nothing Else Matters (Pre-Production Rehearsal)
DR8 -0.40 dB -9.85 dB 6:08 05-Wherever I May Roam (Pre-Production Rehearsal)
DR9 -0.40 dB -9.75 dB 4:08 06-Don't Tread on Me (Pre-Production Rehearsal)
DR8 -0.40 dB -9.58 dB 3:50 07-Through the Never (Pre-Production Rehearsal)
DR10 -0.40 dB -12.83 dB 6:43 08-The Unforgiven (Pre-Production Rehearsal)
DR10 -0.40 dB -10.88 dB 4:16 09-Of Wolf and Man (Pre-Production Rehearsal)
DR9 -0.40 dB -10.03 dB 5:11 10-The God That Failed (Pre-Production Rehearsal)
DR9 -0.40 dB -10.86 dB 6:24 11-My Friend of Misery (Pre-Production Rehearsal)
DR8 0.00 dB -9.44 dB 3:59 12-The Struggle Within (Pre-Production Rehearsal)
DR11 -0.10 dB -12.51 dB 4:02 13-Enter Sandman (Radio Edit)
DR11 -0.10 dB -12.64 dB 5:01 14-The Unforgiven (Radio Edit)
DR11 -0.10 dB -13.57 dB 5:01 15-Nothing Else Matters (Radio Edit)
DR10 -0.10 dB -11.55 dB 5:00 16-Wherever I May Roam (Radio Edit)
––––––––––––––––––––––––––––––––––––––––

Number of tracks: 16
Official DR value: DR9

Samplerate: 96000 Hz
Channels: 2
Bits per sample: 24
Bitrate: 2927 kbps
Codec: FLAC

Tracklist Disc 12: Rough & Alternate Mixes (01:07:55) [24-bit/44.1 kHz]:

01. So What (Early Take, October 12th, 1990) (3:02)
02. Killing Time (Take 18, October 12th, 1990) (3:09)
03. Through the Never (Take 53, October 22, 1990) (4:14)
04. Holier Than Thou (Take 9, October 27th, 1990) (4:01)
05. My Friend of Misery (Take 4, October 27th, 1990) (6:38)
06. The Struggle Within (Take 12, November 10, 1990) (3:26)
07. Of Wolf and Man (Take 2, December 6th, 1990) (4:30)
08. The God That Failed (Take 26, December 6th, 1990) (5:04)
09. Don't Tread on Me (Take 6, December 15th, 1990) (4:03)
10. Enter Sandman (Take 15, January 21st, 1991) (3:37)
11. Enter Sandman (Take 35, January 21st, 1991) (1:30)
12. Late Night Skynyrd Jam (January 23rd, 1991) (4:09)
13. The Unforgiven (139 BPM Take, January 29th, 1991) (5:19)
14. Nothing Else Matters (Take 19, January 29th, 1991) (4:56)
15. Sad But True (Take 36, February 5th, 1991) (5:18)
16. Wherever I May Roam (Take 3, February 5th, 1991) (4:59)

foobar2000 1.6.5 / Dynamic Range Meter 1.1.1

––––––––––––––––––––––––––––––––––––––––
Analyzed: Metallica / Metallica (Remastered Deluxe Boxset)
––––––––––––––––––––––––––––––––––––––––

DR Peak RMS Duration Track
––––––––––––––––––––––––––––––––––––––––
DR9 -0.10 dB -10.48 dB 3:02 01-So What (Early Take, October 12th, 1990)
DR10 -0.10 dB -11.37 dB 3:09 02-Killing Time (Take 18, October 12th, 1990)
DR11 -0.10 dB -12.69 dB 4:14 03-Through the Never (Take 53, October 22, 1990)
DR12 -0.10 dB -13.23 dB 4:01 04-Holier Than Thou (Take 9, October 27th, 1990)
DR12 -0.10 dB -13.93 dB 6:38 05-My Friend of Misery (Take 4, October 27th, 1990)
DR11 -0.10 dB -12.33 dB 3:26 06-The Struggle Within (Take 12, November 10, 1990)
DR13 -0.10 dB -14.42 dB 4:30 07-Of Wolf and Man (Take 2, December 6th, 1990)
DR14 -0.10 dB -15.88 dB 5:04 08-The God That Failed (Take 26, December 6th, 1990)
DR12 -0.10 dB -12.84 dB 4:03 09-Don't Tread on Me (Take 6, December 15th, 1990)
DR12 -0.10 dB -13.50 dB 3:37 10-Enter Sandman (Take 15, January 21st, 1991)
DR12 -0.10 dB -13.55 dB 1:30 11-Enter Sandman (Take 35, January 21st, 1991)
DR13 -0.10 dB -15.41 dB 4:09 12-Late Night Skynyrd Jam (January 23rd, 1991)
DR14 -0.10 dB -16.55 dB 5:19 13-The Unforgiven (139 BPM Take, January 29th, 1991)
DR14 -0.10 dB -16.16 dB 4:56 14-Nothing Else Matters (Take 19, January 29th, 1991)
DR12 -0.10 dB -12.76 dB 5:18 15-Sad But True (Take 36, February 5th, 1991)
DR12 -0.10 dB -13.87 dB 4:59 16-Wherever I May Roam (Take 3, February 5th, 1991)
––––––––––––––––––––––––––––––––––––––––

Number of tracks: 16
Official DR value: DR12

Samplerate: 44100 Hz
Channels: 2
Bits per sample: 24
Bitrate: 1712 kbps
Codec: FLAC

Tracklist Disc 13: Rough & Alternate Mixes (01:15:38) [24-bit/44.1 kHz]:

01. Enter Sandman (May 13th, 1991 Rough Mix) (5:35)
02. The God That Failed (May 13th, 1991 Rough Mix) (5:02)
03. The Struggle Within (May 13th, 1991 Rough Mix) (3:55)
04. The Unforgiven (May 14th, 1991 Rough Mix) (6:21)
05. Wherever I May Roam (May 14th, 1991 Rough Mix) (6:22)
06. Don't Tread on Me (May 14th, 1991 Rough Mix) (4:08)
07. Through the Never (May 14th, 1991 Rough Mix) (4:03)
08. Sad But True (May 23rd, 1991 Rough Mix) (5:24)
09. Of Wolf and Man (June 2nd, 1991 Rough Mix) (4:19)
10. My Friend of Misery (June 2nd, 1991 Rough Mix) (6:43)
11. Holier Than Thou (June 2nd, 1991 Rough Mix) (3:48)
12. Nothing Else Matters (No Orchestra Mix, July 8th, 1991) (6:41)
13. Nothing Else Matters (Orchestra / Guitar / Vocal Mix, July 8th, 1991) (6:46)
14. Nothing Else Matters (Elevator Version) (6:31)

foobar2000 1.6.5 / Dynamic Range Meter 1.1.1

––––––––––––––––––––––––––––––––––––––––
Analyzed: Metallica / Metallica (Remastered Deluxe Boxset)
––––––––––––––––––––––––––––––––––––––––

DR Peak RMS Duration Track
––––––––––––––––––––––––––––––––––––––––
DR8 -0.10 dB -10.06 dB 5:35 01-Enter Sandman (May 13th, 1991 Rough Mix)
DR9 -0.10 dB -10.05 dB 5:02 02-The God That Failed (May 13th, 1991 Rough Mix)
DR10 -0.10 dB -11.72 dB 3:55 03-The Struggle Within (May 13th, 1991 Rough Mix)
DR10 -0.10 dB -12.00 dB 6:21 04-The Unforgiven (May 14th, 1991 Rough Mix)
DR9 -0.10 dB -10.56 dB 6:22 05-Wherever I May Roam (May 14th, 1991 Rough Mix)
DR9 -0.10 dB -10.19 dB 4:08 06-Don't Tread on Me (May 14th, 1991 Rough Mix)
DR10 -0.10 dB -10.96 dB 4:03 07-Through the Never (May 14th, 1991 Rough Mix)
DR9 -0.10 dB -10.56 dB 5:24 08-Sad But True (May 23rd, 1991 Rough Mix)
DR10 -0.10 dB -11.16 dB 4:19 09-Of Wolf and Man (June 2nd, 1991 Rough Mix)
DR9 -0.10 dB -10.98 dB 6:43 10-My Friend of Misery (June 2nd, 1991 Rough Mix)
DR8 -0.10 dB -9.37 dB 3:48 11-Holier Than Thou (June 2nd, 1991 Rough Mix)
DR11 -0.10 dB -13.62 dB 6:41 12-Nothing Else Matters (No Orchestra Mix, July 8th, 1991)
DR14 -0.10 dB -18.09 dB 6:46 13-Nothing Else Matters (Orchestra / Guitar / Vocal Mix, July 8th, 1991)
DR12 -0.10 dB -15.03 dB 6:31 14-Nothing Else Matters (Elevator Version)
––––––––––––––––––––––––––––––––––––––––

Number of tracks: 14
Official DR value: DR10

Samplerate: 44100 Hz
Channels: 2
Bits per sample: 24
Bitrate: 1551 kbps
Codec: FLAC

Tracklist Disc 14: Live at Day on the Green, Oakland, CA, October 12th, 1991 (01:17:18) [24-bit/192 kHz]:

01. Creeping Death (3:33)
02. Harvester of Sorrow (7:02)
03. Welcome Home (Sanitarium) (7:10)
04. Sad But True (5:39)
05. Wherever I May Roam (6:58)
06. Bass Solo (4:27)
07. Through the Never (4:40)
08. The Unforgiven (7:47)
09. Master of Puppets (4:04)
10. Seek & Destroy (7:33)
11. For Whom the Bell Tolls (5:59)
12. Fade to Black (7:34)
13. Whiplash (4:52)

foobar2000 1.6.5 / Dynamic Range Meter 1.1.1

––––––––––––––––––––––––––––––––––––––––
Analyzed: Metallica / Metallica (Remastered Deluxe Boxset)
––––––––––––––––––––––––––––––––––––––––

DR Peak RMS Duration Track
––––––––––––––––––––––––––––––––––––––––
DR10 -0.10 dB -12.11 dB 3:33 01-Creeping Death
DR10 -0.10 dB -12.42 dB 7:02 02-Harvester of Sorrow
DR10 -0.10 dB -12.10 dB 7:10 03-Welcome Home (Sanitarium)
DR10 -0.10 dB -11.57 dB 5:39 04-Sad But True
DR10 -0.10 dB -11.80 dB 6:58 05-Wherever I May Roam
DR13 -0.10 dB -17.74 dB 4:27 06-Bass Solo
DR10 -0.10 dB -11.79 dB 4:40 07-Through the Never
DR11 -0.10 dB -13.25 dB 7:47 08-The Unforgiven
DR11 -0.10 dB -11.96 dB 4:04 09-Master of Puppets
DR11 -0.10 dB -11.95 dB 7:33 10-Seek & Destroy
DR11 -0.10 dB -12.25 dB 5:59 11-For Whom the Bell Tolls
DR10 -0.10 dB -12.74 dB 7:34 12-Fade to Black
DR11 -0.10 dB -12.21 dB 4:52 13-Whiplash
––––––––––––––––––––––––––––––––––––––––

Number of tracks: 13
Official DR value: DR11

Samplerate: 192000 Hz
Channels: 2
Bits per sample: 24
Bitrate: 5443 kbps
Codec: FLAC

All thanks go to the original releaser

Metallica in my Blog

Download Metallica - Metallica (2021):