Tags
Language
Tags

Minoru Fushimi - Thanatos of Funk (1985/2022)

Posted By: v3122
Minoru Fushimi - Thanatos of Funk (1985/2022)

Minoru Fushimi - Thanatos of Funk (1985/2022)
FLAC (Tracks) 24-bit/44.1 kHz | Official Digital Download | Time: 000:45:42
Electro, Funk, Experimental | Label: 180g | ~ 536 Mb

Minoru "Hoodoo" Fushimi's most wanted and impossible to find first album Thanatos Of Funk is finally reissued for the first time ever, in collaboration with Fushimi himself. Thanatos Of Funk is a milestone in Japan's underground music and electro funk/early hip hop history. Entirely self-produced, designed and distributed in 1985 by Fushimi, a high-school teacher by day and music experimenter by night, Thanatos Of Funk is a love-letter to counter-culture, DIY, drum machines and synthesizers blent with some killer shamisen and guitar playing. This is truly unique music.
Minoru Fushimi - Thanatos of Funk (1985/2022):

Tracklist:

01. Thanatopsis (6:51)
02. In Praise of Mitochondria (2:55)
03. Shinzo-San (4:42)
04. It Isn't Because of Hemoglobin (6:35)
05. Hensachi-Sama (4:53)
06. Foxy Lady (3:59)
07. Gal's Blues (2:36)
08. Panda Steak (3:43)
09. Disco Thesis (2:59)
10. Dompan (Private Funk) (6:29)

foobar2000 1.6.11 / Dynamic Range Meter 1.1.1
log date: 2022-06-16 19:13:55

––––––––––––––––––––––––––––––––––––––––
Analyzed: Minoru Fushimi / Thanatos of Funk
––––––––––––––––––––––––––––––––––––––––

DR Peak RMS Duration Track
––––––––––––––––––––––––––––––––––––––––
DR7 -0.30 dB -9.26 dB 6:51 01-Thanatopsis
DR6 -0.30 dB -7.44 dB 2:55 02-In Praise of Mitochondria
DR7 -0.30 dB -8.73 dB 4:42 03-Shinzo-San
DR7 -0.30 dB -9.23 dB 6:35 04-It Isn't Because of Hemoglobin
DR6 -0.34 dB -7.39 dB 4:53 05-Hensachi-Sama
DR6 -0.34 dB -7.99 dB 3:59 06-Foxy Lady
DR7 -0.30 dB -8.17 dB 2:36 07-Gal's Blues
DR6 -0.30 dB -8.31 dB 3:43 08-Panda Steak
DR7 -0.30 dB -8.96 dB 2:59 09-Disco Thesis
DR7 -0.30 dB -8.86 dB 6:29 10-Dompan (Private Funk)
––––––––––––––––––––––––––––––––––––––––

Number of tracks: 10
Official DR value: DR7

Samplerate: 44100 Hz
Channels: 2
Bits per sample: 24
Bitrate: 1651 kbps
Codec: FLAC

All thanks go to the original releaser

Download Minoru Fushimi - Thanatos of Funk (1985/2022):