Tags
Language
Tags

Naxatras - IV (2022)

Posted By: v3122
Naxatras - IV (2022)

Naxatras - IV (2022)
FLAC (Tracks) 24-bit/96 kHz | Official Digital Download | Time: 00:51:44
Stoner Rock, Psychedelic Rock, Prog Rock | Evening Star | ~ 1.10 Gb

Celebrated Greek progressive psych band NAXATRAS have awoken once again with a mesmerising new album IV. It sees the band move away from their traditional analogue trademarked sound to something more precise and multilevelled. This has given them the ability to explore the outer limits of their psychedelic world, allowing for the band to expand from a trio to a quartet with the recruitment of keyboardist Pantelis Kargas. Showing a greater focus on songwriting, musicianship, and composition, IV is the band’s most ambitious release to date, with tighter performances and finely crafted arrangements. Drawing upon their 1970s prog rock influences and master songwriters of esoterica, NAXATRAS offer up gentle and intricate psychedelia that will help you drift off into a kaleidoscopic and clement world of colours.

The immediate and most notable feature of this album is the contributions of the synths and keyboards. By comparison to their previous effort III, IV sounds much more expansive and expressive, helping the band express emotions that they previously weren’t able to. When you’re deep in the psychedelic haze of the album, it does truly feel like you’ve been whisked away by fairies that inhabit toad stool circles, destined to become lost in this mushroom-induced magic.

With this in mind, it is also easy to pin point the influences behind some of the songs. Predominately influenced by PINK FLOYD, Jimi Hendrix, Steven Wilson and OZRIC TENTACLES, the band’s multi-layered approach to IV’s songwriting feels more streamlined and structured compared to their previous jam-band style ventures. This feels like a band at the beginning of a newly found creative peak; NAXATRAS utilise every ounce of their songwriting experience to push themselves to their creative limit. While vocals are still kept to a minimum, we hear a new side to John Delias’ and John Vagenas’ voices. Standing much more in the foreground, there is a more emotive feel that resonates with your soul.

One of the best ways to describe this album would be as a flower garden, constantly shifting with new blooms and blossoms of radiant colour whilst swaying in a summer breeze. You can feel the sun’s rays beating down on you as you sit amongst them in a summer daze. It is ultimately uplifting and relaxing music that you can so easily get lost in. The melodies and harmonies feel so vivid and bright whilst constantly evolving throughout the album, moving away from the band’s dingier, more blues and riff orientated style. The vibe of the psychedelic 70s is very much at the album’s core.

The stand out track on the album is the simply exquisite Journey To Narahmon. Combining all their influences into one masterfully created track that builds tension from the start before bursting into life with a colourful supernova. The added enchantment of featured artist Eva Seitanidou’s vocals sends chills down your spine. Radiant Stars offers a hybrid Hendrix/PINK FLOYD style wah pedal action which provides and upbeat relief after the motion packed The Answer. Reflection (Death/Rebirth) blends melancholy with towering synth drones as if you were just passing through the final phase of your spiritual journey. Omega Madness takes you on a spiralling adventure through a trippy time vortex as synths, vocal samples and guitar licks swirl around you underpinned by a rooted, groove-laden bass line.

All this action culminates in the album’s final track, Shape Of The Evening, as everything is boiled down into a Planet Caravan style moment of reflection. The acoustic and slide guitars bring into play the first real mediterranean influence to the album, as it explores the more modal aspects of the guitar whilst placing you on the warm but turbulent Greek coast.

With an album like IV, it is impossible to take it all in on a first listen. However, this album is incredibly inviting and you will discover more and more with each play through. This new direction for NAXATRAS is exciting, as they bring influences from the prog and psychedelic scenes together to create an intriguing and cathartic amalgamation of colourful, kaleidoscopic sound.

Rating: 8/10

by Tom Fordham
Naxatras - IV (2022):

Tracklist:

01. Reflection (Birth) (4:36)
02. Omega Madness (6:50)
03. Journey to Narahmon (6:07)
04. The Answer (5:44)
05. Ride with Time (3:03)
06. Radiant Stars (3:16)
07. Horizon (6:55)
08. The Battle of Crystal Fields (8:47)
09. Reflection (Death & Rebirth) (2:38)
10. Shape of the Evening (3:47)

- John Delias / guitar
- John Vagenas / bass, vocals
- Kostas Charizanis / drums
- Pantelis Kargas / synthesizers

With:
- Evi Seitanidou / vocals


foobar2000 1.6.9 / Dynamic Range Meter 1.1.1

––––––––––––––––––––––––––––––––––––––––
Analyzed: Naxatras / IV
––––––––––––––––––––––––––––––––––––––––

DR Peak RMS Duration Track
––––––––––––––––––––––––––––––––––––––––
DR7 -0.10 dB -9.54 dB 4:36 01-Reflection (Birth)
DR8 -0.10 dB -9.38 dB 6:50 02-Omega Madness
DR7 -0.10 dB -9.58 dB 6:07 03-Journey to Narahmon
DR9 -0.10 dB -10.72 dB 5:44 04-The Answer
DR7 -0.10 dB -10.19 dB 3:03 05-Ride with Time
DR8 -0.10 dB -9.62 dB 3:16 06-Radiant Stars
DR7 -0.10 dB -9.53 dB 6:55 07-Horizon
DR8 -0.10 dB -9.68 dB 8:47 08-The Battle of Crystal Fields
DR8 -0.10 dB -10.12 dB 2:38 09-Reflection (Death & Rebirth)
DR9 -0.10 dB -12.88 dB 3:47 10-Shape of the Evening
––––––––––––––––––––––––––––––––––––––––

Number of tracks: 10
Official DR value: DR8

Samplerate: 96000 Hz
Channels: 2
Bits per sample: 24
Bitrate: 3025 kbps
Codec: FLAC

All thanks go to the original releaser

Download Naxatras - IV (2022):