Tags
Language
Tags

Patrick Savage - Black Site (2022) [Official Digital Download]

Posted By: ciklon5
Patrick Savage - Black Site (2022) [Official Digital Download]

Patrick Savage - Black Site (2022) [Official Digital Download]
FLAC (tracks), Lossless [24bit-48kHz] | 45:43| 508 Mb
Genre: Soundtrack / Label: Music.Film

PATRICK SAVAGE Australian/UK composer, concert violinist, former Principal 1st violin, Royal Philharmonic Orchestra.
HOLEG SPIES French composer, trail-blazing electronic music producer (Sony, Universal), avant-garde audiovisual artist.
Black Site is a 2022 American action-thriller film directed by Sophia Banks and written by Jinder Ho.

Track List:
1.01 - Patrick Savage - Terror Attack (feat. Holeg Spies) (3:32)
1.02 - Patrick Savage - Enter the Citadel (feat. Holeg Spies) (2:04)
1.03 - Patrick Savage - Hatchet Captured (feat. Holeg Spies) (1:57)
1.04 - Patrick Savage - Analysing the Blast (feat. Holeg Spies) (1:48)
1.05 - Patrick Savage - What Did You Tell Them? (feat. Holeg Spies) (2:40)
1.06 - Patrick Savage - Farhan (feat. Holeg Spies) (3:58)
1.07 - Patrick Savage - Flight to the Citadel (feat. Holeg Spies) (1:57)
1.08 - Patrick Savage - Hatchet Interrogation (feat. Holeg Spies) (1:54)
1.09 - Patrick Savage - Scalpel (feat. Holeg Spies) (2:10)
1.10 - Patrick Savage - Hatchet Hammer (feat. Holeg Spies) (1:43)
1.11 - Patrick Savage - You Are Now in Charge (feat. Holeg Spies) (2:28)
1.12 - Patrick Savage - The Server Room Fight (feat. Holeg Spies) (2:57)
1.13 - Patrick Savage - Hatchet Down (feat. Holeg Spies) (1:56)
1.14 - Patrick Savage - Abby in the Cell (feat. Holeg Spies) (1:59)
1.15 - Patrick Savage - Uri vs. Hatchet (feat. Holeg Spies) (2:38)
1.16 - Patrick Savage - It’s Going to End Right Here (feat. Holeg Spies) (3:29)
1.17 - Patrick Savage - Drone (feat. Holeg Spies) (2:28)
1.18 - Sean Hinds - White Light (4:14)

foobar2000 1.6.10 / Dynamic Range Meter 1.1.1
log date: 2022-05-10 18:33:10

––––––––––––––––––––––––––––––––––––––––
Analyzed: Patrick Savage / Black Site (Original Motion Picture Soundtrack) (1-17)
Sean Hinds / Black Site (Original Motion Picture Soundtrack) (18)
––––––––––––––––––––––––––––––––––––––––

DR Peak RMS Duration Track
––––––––––––––––––––––––––––––––––––––––
DR8 -0.50 dB -14.90 dB 3:32 01-Terror Attack (feat. Holeg Spies)
DR8 -0.50 dB -11.33 dB 2:04 02-Enter the Citadel (feat. Holeg Spies)
DR8 -0.50 dB -11.88 dB 1:57 03-Hatchet Captured (feat. Holeg Spies)
DR8 -0.50 dB -12.43 dB 1:48 04-Analysing the Blast (feat. Holeg Spies)
DR8 -0.50 dB -11.60 dB 2:40 05-What Did You Tell Them? (feat. Holeg Spies)
DR11 -0.50 dB -17.39 dB 3:58 06-Farhan (feat. Holeg Spies)
DR10 -0.50 dB -14.74 dB 1:57 07-Flight to the Citadel (feat. Holeg Spies)
DR10 -0.50 dB -13.85 dB 1:54 08-Hatchet Interrogation (feat. Holeg Spies)
DR10 -0.50 dB -14.05 dB 2:10 09-Scalpel (feat. Holeg Spies)
DR9 -0.50 dB -12.76 dB 1:43 10-Hatchet Hammer (feat. Holeg Spies)
DR9 -0.50 dB -14.60 dB 2:28 11-You Are Now in Charge (feat. Holeg Spies)
DR9 -0.50 dB -14.11 dB 2:57 12-The Server Room Fight (feat. Holeg Spies)
DR10 -0.50 dB -13.59 dB 1:56 13-Hatchet Down (feat. Holeg Spies)
DR8 -0.50 dB -13.05 dB 1:59 14-Abby in the Cell (feat. Holeg Spies)
DR8 -0.50 dB -12.81 dB 2:38 15-Uri vs. Hatchet (feat. Holeg Spies)
DR10 -0.50 dB -14.67 dB 3:29 16-It’s Going to End Right Here (feat. Holeg Spies)
DR7 -0.50 dB -11.12 dB 2:28 17-Drone (feat. Holeg Spies)
DR9 0.00 dB -9.76 dB 4:14 18-White Light
––––––––––––––––––––––––––––––––––––––––

Number of tracks: 18
Official DR value: DR9

Samplerate: 48000 Hz
Channels: 2
Bits per sample: 24
Bitrate: 1846 kbps
Codec: FLAC
================================================================================