Philip Klein - The Last Full Measure (Original Motion Picture Soundtrack) (2020) [Official Digital Download]

Posted By: Pisulik
Philip Klein - The Last Full Measure (Original Motion Picture Soundtrack) (2020) [Official Digital Download]

Philip Klein - The Last Full Measure (Original Motion Picture Soundtrack) (2020)
FLAC (tracks) 24-bit/48 kHz | Time - 62:15 minutes | 589 MB
Studio Master, Official Digital Download | Artwork: Front cover

Original Motion Picture Score from the film The Last Full Measure (2019). The score music was composed by Philip Klein. The Last Full Measure is a 2019 war drama film written and directed by Todd Robinson. The film stars Sebastian Stan, Christopher Plummer, William Hurt, Ed Harris, Samuel L. Jackson, Jeremy Irvine, Peter Fonda, LisaGay Hamilton.

Tracklist:

1 A1C PJ Pitsenbarger (Main Theme)
2 April 11th, 1966
3 Huffman
4 Refugee
5 I Knew What He Was Thinking
6 Takoda’s Recurring Dream
7 He Never Says Anything
8 Thanksgiving
9 I Killed My Own Men
10 To Vietnam
11 Pits Waves Them Off
12 Avalon
13 He Was There To Save Lives
14 Jenny’s Letter
15 Tully At The Wall
16 You’re Supposed To Be Afraid
17 The Last Full Measure
18 These Things We Do, That Others May Live (End Credits)

foobar2000 1.3.7 / Dynamic Range Meter 1.1.1
log date: 2020-02-05 04:42:53

––––––––––––––––––––––––––––––––––––––––
Analyzed: Philip Klein / The Last Full Measure (Original Motion Picture Soundtrack)
––––––––––––––––––––––––––––––––––––––––

DR Peak RMS Duration Track
––––––––––––––––––––––––––––––––––––––––
DR9 -0.48 dB -13.55 dB 2:20 01-A1C PJ Pitsenbarger (Main Theme)
DR10 -0.49 dB -14.49 dB 2:28 02-April 11th, 1966
DR10 -2.17 dB -18.12 dB 1:07 03-Huffman
DR9 -0.49 dB -22.90 dB 2:01 04-Refugee
DR11 -7.41 dB -23.70 dB 4:32 05-I Knew What He Was Thinking
DR11 -3.03 dB -22.11 dB 2:06 06-Takoda’s Recurring Dream
DR10 -5.44 dB -24.35 dB 2:12 07-He Never Says Anything
DR11 -7.60 dB -26.67 dB 1:30 08-Thanksgiving
DR13 -0.49 dB -19.90 dB 2:05 09-I Killed My Own Men
DR10 -0.50 dB -14.85 dB 2:48 10-To Vietnam
DR10 -3.90 dB -20.29 dB 1:38 11-Pits Waves Them Off
DR13 -0.50 dB -18.73 dB 4:30 12-Avalon
DR9 -0.50 dB -14.18 dB 1:40 13-He Was There To Save Lives
DR10 -1.74 dB -18.13 dB 1:30 14-Jenny's Letter
DR17 -0.49 dB -23.02 dB 6:22 15-Tully At The Wall
DR11 -3.89 dB -22.22 dB 1:45 16-You're Supposed To Be Afraid
DR10 -0.50 dB -16.68 dB 13:06 17-The Last Full Measure
DR11 -0.50 dB -17.40 dB 8:35 18-These Things We Do, That Others May Live (End Credits)
––––––––––––––––––––––––––––––––––––––––

Number of tracks: 18
Official DR value: DR11

Samplerate: 48000 Hz
Channels: 2
Bits per sample: 24
Bitrate: 1349 kbps
Codec: FLAC
================================================================================


All thanks go to the original releaser