Piergiuseppe Zaia - Creators: The Past (Original Motion Picture Soundtrack) (2020) [Official Digital Download]

Posted By: shamanicus
Piergiuseppe Zaia - Creators: The Past (Original Motion Picture Soundtrack) (2020) [Official Digital Download]

Piergiuseppe Zaia - Creators: The Past (Original Motion Picture Soundtrack) (2020)
FLAC (tracks) 24-bit/44.1 kHz | 1:02:26 | 900 mb
Studio Master, Official Digital Download | Artwork: front cover

Creators: The Past is an upcoming Italian fantasy film written by Piergiuseppe Zaia and Eleonora Fani, directed by Piergiuseppe Zaia and starring Gérard Depardieu, Bruce Payne, Eleonara Fani, Marc Fiorini, Jennifer Mischiati and William Shatner.

Tracklist:

01. Bolero
02. Kronos
03. Air Tango
04. The Path - Enimod
05. Cavete demoni
06. Coelis mortem ite
07. Faith Master
08. Domine
09. Misery
10. Deus audi
11. Defeat the Scorpion
12. The Story of Jesus
13. Lord Kal
14. Requiem
15. Air Dance
16. Hiders
17. Rise Again
18. Now
19. The Provocation
20. Battle of the Oranges
21. The Clash
22. The Traffickers
23. The Secret of Venice
24. Across Endless Dimensions


foobar2000 1.4 / Dynamic Range Meter 1.1.1
log date: 2020-04-03 16:33:37

––––––––––––––––––––––––––––––––––––––––
Analyzed: Piergiuseppe Zaia / Creators: The Past (Original Motion Picture Soundtrack)
––––––––––––––––––––––––––––––––––––––––

DR Peak RMS Duration Track
––––––––––––––––––––––––––––––––––––––––
DR7 -0.10 dB -9.67 dB 2:58 01-Bolero
DR8 -0.10 dB -9.86 dB 3:46 02-Kronos
DR5 -0.10 dB -7.84 dB 3:01 03-Air Tango
DR8 -0.10 dB -10.76 dB 3:20 04-The Path - Enimod
DR7 -0.10 dB -9.64 dB 1:45 05-Cavete demoni
DR7 -0.10 dB -9.05 dB 1:57 06-Coelis mortem ite
DR9 -0.10 dB -12.54 dB 2:15 07-Faith Master
DR9 -0.10 dB -11.48 dB 3:32 08-Domine
DR6 -0.10 dB -8.57 dB 1:27 09-Misery
DR8 -0.10 dB -10.02 dB 2:40 10-Deus audi
DR9 -0.10 dB -11.36 dB 2:50 11-Defeat the Scorpion
DR9 -0.10 dB -11.68 dB 2:34 12-The Story of Jesus
DR11 -0.10 dB -15.41 dB 1:53 13-Lord Kal
DR10 -0.10 dB -13.17 dB 2:26 14-Requiem
DR8 -0.10 dB -10.44 dB 2:19 15-Air Dance
DR7 -0.10 dB -9.47 dB 1:57 16-Hiders
DR6 -0.10 dB -8.46 dB 2:13 17-Rise Again
DR10 -0.10 dB -12.08 dB 2:39 18-Now
DR9 -0.10 dB -10.86 dB 2:18 19-The Provocation
DR9 -0.10 dB -11.27 dB 2:21 20-Battle of the Oranges
DR9 -0.10 dB -11.67 dB 2:31 21-The Clash
DR7 -0.10 dB -8.48 dB 2:58 22-The Traffickers
DR7 -0.10 dB -10.10 dB 2:54 23-The Secret of Venice
DR6 -3.07 dB -11.89 dB 3:54 24-Across Endless Dimensions
––––––––––––––––––––––––––––––––––––––––

Number of tracks: 24
Official DR value: DR8

Samplerate: 44100 Hz
Channels: 2
Bits per sample: 24
Bitrate: 1512 kbps
Codec: FLAC
================================================================================




Thanks to the Original customer.