Psychotic Waltz - The God-Shaped Void (2020) [Official Digital Download]

Posted By: Pisulik
Psychotic Waltz - The God-Shaped Void (2020) [Official Digital Download]

Psychotic Waltz - The God-Shaped Void (2020)
FLAC (tracks) 24-bit/44.1 kHz | Time - 58:47 minutes | 726 MB
Studio Master, Official Digital Download | Artwork: Front cover

US Progressive Metal pioneers and innovators PSYCHOTIC WALTZ finally return with their highly anticipated 5th studio album and first new music in 23 years. Regrouped with all five original members, "The God-Shaped Void" was mixed/mastered by Jens Bogren (Opeth, Devin Townsend, Symphony X) and comes with artwork by longterm visual design partner Travis Smith (Katatonia, Riverside, Nevermore). Featuring their trademarked dual guitar harmonies/leads and distinctive vocals, the album effortlessly picks up right where PSYCHOTIC WALTZ left off, blending accomplished musicianship, a mystical lyrical bent, and a sound that captures the best elements of both vintage and modern eras. "The God-Shaped Void" is available as limited Mediabook CD including patch and bonus track, Gatefold 2LP with bonus track and the entire album on CD as bonus and also as standard Jewelcase CD. Look out for more Psychotic Waltz activity following soon.

Tracklist:

01. Devils and Angels
02. Stranded
03. Back to Black
04. All the Bad Men
05. The Fallen
06. While the Spiders Spin
07. Pull the String
08. Demystified
09. Season of the Swarm
10. Sisters of the Dawn
11. In the Silence

foobar2000 1.3.7 / Dynamic Range Meter 1.1.1
log date: 2020-02-13 23:03:51

––––––––––––––––––––––––––––––––––––––––
Analyzed: Psychotic Waltz / The God-Shaped Void
––––––––––––––––––––––––––––––––––––––––

DR Peak RMS Duration Track
––––––––––––––––––––––––––––––––––––––––
DR5 -0.32 dB -7.66 dB 6:30 01-Devils and Angels
DR6 -0.30 dB -6.86 dB 4:49 02-Stranded
DR5 -0.32 dB -6.87 dB 3:53 03-Back to Black
DR5 -0.32 dB -6.90 dB 3:59 04-All the Bad Men
DR6 -0.32 dB -8.33 dB 5:49 05-The Fallen
DR6 -0.32 dB -7.52 dB 5:49 06-While the Spiders Spin
DR5 -0.32 dB -6.80 dB 4:54 07-Pull the String
DR6 -0.32 dB -8.56 dB 5:13 08-Demystified
DR6 -0.32 dB -7.71 dB 5:58 09-Season of the Swarm
DR6 -0.32 dB -7.08 dB 6:41 10-Sisters of the Dawn
DR7 -0.32 dB -9.52 dB 5:16 11-In the Silence
––––––––––––––––––––––––––––––––––––––––

Number of tracks: 11
Official DR value: DR6

Samplerate: 44100 Hz
Channels: 2
Bits per sample: 24
Bitrate: 1641 kbps
Codec: FLAC
================================================================================


All thanks go to the original releaser