BBC National Chorus & Orchestra of Wales, Richard Hickox - Dyson: Quo Vadis (2003) [Official Digital Download 24/96]

Posted By: shamanicus
BBC National Chorus & Orchestra of Wales, Richard Hickox - Dyson: Quo Vadis (2003) [Official Digital Download 24/96]

BBC National Chorus & Orchestra of Wales, Richard Hickox - Dyson: Quo Vadis (2003)
FLAC (tracks) 24-bit/96 kHz | 1:41:20 | 880 mb
Studio Master, Official Digital Download | Artwork: Front Cover

Like so many British composers Dyson, even before he died in 1962, suffered neglect through writing in a conservative idiom that critics were all too ready to label 'out of date'. Originally written for the Three Choirs Festival in Hereford in 1939, its first performance was-cancelled because of the outbreak of war, and it was only given its premiere in Hereford a decade later.

Dyson draws on the widest array of sources, boldly picking out passages from such poets as Campion, Vaughan, Herrick, Shelley, Newman and Bridges in an elaborate kaleidoscope, mixing them together in all but one of the nine substantial movements, even rearranging individual lines from Wordsworth's Intimations ofImmortality. He also includes such well-known hymns as God be in my head and New every morning without hinting at the respective hymn tunes. Such a scheme might be expected to sound disjointed or bitty, but Dyson's response to each section of his text gives a seamless quality to each movement, with ecstatic choral climaxes designed to exploit the all-embracing acoustics of a great cathedral. The warm but well-defined recording helps to heighten the impact of the singing of the Welsh choristers. All four soloists are in superb voice, each of them strong, firm and characterful; and both choruses sing with fresh, incandescent tone. Dyson's idiom may not be as distinctive as that of those other 'agnostics at prayer', but with its lyrical warmth and fine control of texture, the result will delight all devotees of the English choral tradition.

Tracklist:

01. Quo Vadis: I. Our birth is but a sleep (Chorus)
02. Quo Vadis: II. Rise, O my soul (Contralto, Semi-chorus)
03. Quo Vadis: III. O whither shall my troubled muse incline (Bass, Chorus)
04. Quo Vadis: IV. Night hath no wings (Tenor, Semi-chorus)
05. Quo Vadis: V. O timely happy, timely wise (Quartet, Chorus, Semi-chorus)
06. Quo Vadis: VI. Dear stream! dear bank! (Soprano)
07. Quo Vadis: VII. Come to me, God (Bass, Chorus)
08. Quo Vadis: VIII. They are at rest (Contralto, Quartet)
09. Quo Vadis: IX. To find the western path (Tenor, Quartet, Chorus)

Performers:
Cheryl Barker soprano
Jean Rigby mezzo-soprano
Philip Langridge tenor
Roderick Williams baritone
Chamber Choir of the Royal Welsh College of Music and Drama
BBC National Chorus of Wales
BBC National Orchestra of Wales
Richard Hickox



foobar2000 1.4 / Dynamic Range Meter 1.1.1
log date: 2020-01-14 13:28:05

––––––––––––––––––––––––––––––––––––––––
Analyzed: None / Quo Vadis
––––––––––––––––––––––––––––––––––––––––

DR Peak RMS Duration Track
––––––––––––––––––––––––––––––––––––––––
DR16 -0.10 dB -22.89 dB 11:33 01-Quo Vadis: I. Our birth is but a sleep (Chorus)
DR15 -6.80 dB -28.89 dB 8:20 02-Quo Vadis: II. Rise, O my soul (Contralto, Semi-chorus)
DR13 -0.20 dB -18.25 dB 10:55 03-Quo Vadis: III. O whither shall my troubled muse incline (Bass, Chorus)
DR17 -2.06 dB -26.11 dB 10:30 04-Quo Vadis: IV. Night hath no wings (Tenor, Semi-chorus)
DR14 -0.10 dB -20.39 dB 13:22 05-Quo Vadis: V. O timely happy, timely wise (Quartet, Chorus, Semi-chorus)
DR15 -3.42 dB -24.67 dB 9:51 06-Quo Vadis: VI. Dear stream! dear bank! (Soprano)
DR14 -0.10 dB -20.93 dB 10:12 07-Quo Vadis: VII. Come to me, God (Bass, Chorus)
DR13 -3.58 dB -24.42 dB 8:01 08-Quo Vadis: VIII. They are at rest (Contralto, Quartet)
DR13 -0.09 dB -18.49 dB 18:35 09-Quo Vadis: IX. To find the western path (Tenor, Quartet, Chorus)
––––––––––––––––––––––––––––––––––––––––

Number of tracks: 9
Official DR value: DR15

Samplerate: 96000 Hz
Channels: 2
Bits per sample: 24
Bitrate: 870 kbps
Codec: FLAC
================================================================================


Thanks to the Original customer.